coor
武林高手

[2019] [欧美] [动作] [WEB-720P] 第一滴血5:最后的血 Rambo.Last.Blood.2019.720p.AMZN.WEBRip.DDP5.1.x264-NTG 2.64GB

-->

帖子完整标题:第一滴血5:最后的血 Rambo.Last.Blood.2019.720p.AMZN.WEBRip.DDP5.1.x264-NTG 2.64GB




◎译  名 第一滴血5:最后的血 / Rambo 5 / Rambo 5: Last Blood / Rambo V / Rambo V: Last Blood / 兰博5:最后一滴血 / 第一滴血5 / 第一滴血:最后一战 / 第一滴血:终极血战(港) / 蓝波:最后一滴血(台)
◎片  名 Rambo: Last Blood
◎年  代 2019
◎产  地 美国
◎类  别 动作 / 惊悚 / 冒险
◎语  言 英语
◎上映日期 2019-09-20(美国)
◎IMDb评分 6.7/10 from 23992 users
◎IMDb链接 https://www.imdb.com/title/tt1206885
◎豆瓣评分 7.6/10 from 1217 users
◎豆瓣链接 https://movie.douban.com/subject/10546436/
◎片  长 89分钟
◎导  演 阿德里安·格鲁伯格 Adrian Grunberg
◎编  剧 马修·西鲁尼克 Matthew Cirulnick / 大卫·莫瑞尔 David Morrell / 西尔维斯特·史泰龙 Sylvester Stallone
◎主  演 西尔维斯特·史泰龙 Sylvester Stallone
      帕斯·贝加 Paz Vega
      路易·曼迪勒 Louis Mandylor
      奥斯卡·贾恩那达 óscar Jaenada
      维特·蒙雷尔 Yvette Monreal
      华金·科西奥 Joaquín Cosio
      杰西卡·马德森 Jessica Madsen
      艾德里安娜·巴拉扎 Adriana Barraza
      塞尔吉奥·佩里斯-门切塔 Sergio Peris-Mencheta
      阿塔纳斯·斯雷布雷夫 Atanas Srebrev
      尼克·威特曼 Nick Wittman


◎标  签 动作 | 硬汉 | 美国 | 经典 | 暴力 | 战争 | 血腥 | 2019

◎简  介

  西尔维斯特·史泰龙回归[第一滴血5],并有望执导。除主演外,据悉史泰龙将操刀剧本,故事围绕兰博为营救朋友之女与墨西哥毒枭展开殊死搏斗展开。制片艾威·勒纳([敢死队]系列)。该系列首部于1982年上映,2008年史泰龙曾自导自演[第一滴血4]。[第一滴血5]将在本届戛纳电影节预售,9月开拍。
Video
ID : 1
Format : AVC
Format/Info : Advanced Video Codec
Format profile : [email protected]
Format settings : CABAC / 4 Ref Frames
Format settings, CABAC : Yes
Format settings, Reference frames : 4 frames
Codec ID : V_MPEG4/ISO/AVC
Duration : 1 h 29 min
Bit rate mode : Constant
Bit rate : 3 580 kb/s
Nominal bit rate : 6 000 kb/s
Width : 1 248 pixels
Height : 520 pixels
Display aspect ratio : 2.40:1
Frame rate mode : Constant
Frame rate : 23.976 (24000/1001) FPS
Color space : YUV
Chroma subsampling : 4:2:0
Bit depth : 8 bits
Scan type : Progressive
Bits/(Pixel*Frame) : 0.230
Stream size : 2.24 GiB (85%)
Default : Yes
Forced : No
Color range : Limited
Color primaries : BT.709
Transfer characteristics : BT.709
Matrix coefficients : BT.709

Audio
ID : 2
Format : E-AC-3
Format/Info : Enhanced AC-3
Commercial name : Dolby Digital Plus
Codec ID : A_EAC3
Duration : 1 h 29 min
Bit rate mode : Constant
Bit rate : 640 kb/s
Channel(s) : 6 channels
Channel layout : L R C LFE Ls Rs
Sampling rate : 48.0 kHz
Frame rate : 31.250 FPS (1536 SPF)
Compression mode : Lossy
Stream size : 409 MiB (15%)
Language : English
Service kind : Complete Main
Default : Yes
Forced : No

Text #1
ID : 3
Format : UTF-8
Codec ID : S_TEXT/UTF8
Codec ID/Info : UTF-8 Plain Text
Duration : 1 h 17 min
Bit rate : 28 b/s
Count of elements : 590
Stream size : 16.4 KiB (0%)
Language : English
Default : No
Forced : No

Text #2
ID : 4
Format : UTF-8
Codec ID : S_TEXT/UTF8
Codec ID/Info : UTF-8 Plain Text
Duration : 1 h 18 min
Bit rate : 36 b/s
Count of elements : 830
Stream size : 20.9 KiB (0%)
Title : SDH
Language : English
Default : No
Forced : No





1 个附件 售价 大小 下载 时间

Rambo.Last.Blood.2019.720p.AMZN.WEBRip.DDP5.1.x264-NTG.torrent 0 金币 26.92K 889 次 10天前

#1楼
发帖时间:2019-12-03 18:27:33   |   回复数:2
911degrees
隐世仙人♂
非常感谢,谢谢分享
10天前 #2楼
jokingcheung
一代宗师
谢谢分享
10天前 #3楼
游客组