coor
武林高手

[更 早] [欧美] [动作] [BD-4K] 星球大战前传2:克隆人的进攻/复制人的袭击 Star.Wars.Episode.II.Attack.Of.The.Clones.2002.2160p.DSNP.

-->

帖子完整标题:星球大战前传2:克隆人的进攻/复制人的袭击 Star.Wars.Episode.II.Attack.Of.The.Clones.2002.2160p.DSNP.WEBRip.x265.10bit.HDR.DTS-HD.MA.6.1-TrollUHD 17.56GB




◎译  名 星球大战前传2:克隆人的进攻 / 复制人的袭击 / 星战前传之克隆人的进攻 / 星球大战前传II:复制人侵略(港) / 星球大战第二集:克隆人的进攻 / 星际大战二部曲:复制人全面进攻(台)
◎片  名 Star Wars: Episode II - Attack of the Clones
◎年  代 2002
◎产  地 美国
◎类  别 动作 / 科幻 / 冒险
◎语  言 英语
◎上映日期 2002-05-16(美国) / 2002-07-12(中国大陆)
◎IMDb评分 6.6/10 from 581774 users
◎IMDb链接 http://www.imdb.com/title/tt0121765
◎豆瓣评分 7.9/10 from 66081 users
◎豆瓣链接 https://movie.douban.com/subject/1297785/
◎片  长 142分钟
◎导  演 乔治·卢卡斯 George Lucas
◎编  剧 乔治·卢卡斯 George Lucas / 乔纳森·黑尔斯 Jonathan Hales
◎主  演 伊万·麦克格雷格 Ewan McGregor
      娜塔莉·波特曼 Natalie Portman
      海登·克里斯滕森 Hayden Christensen
      克里斯托弗·李 Christopher Lee
      塞缪尔·杰克逊 Samuel L. Jackson
      弗兰克·奥兹 Frank Oz
      伊恩·麦克迪阿梅德 Ian McDiarmid
      潘妮拉·奥古斯特 Pernilla August
      特穆拉·莫里森 Temuera Morrison
      吉米·斯密茨 Jimmy Smits
      杰克·汤普森 Jack Thompson
      阿梅德·贝斯特 Ahmed Best
      萝丝·拜恩 Rose Byrne
      奥利弗·福德·戴维斯 Oliver Ford Davies
      利安娜·瓦尔斯曼 Leeanna Walsman


◎标  签 科幻 | 星球大战 | 美国 | 经典 | 2002 | 动作 | 冒险 | 战争

◎简  介

  绝地武士战胜西斯学徒后十年,银河共和国再次面临威胁,前绝地武士杜库伯爵(克里斯托弗?李 Christopher Lee 饰)鼓动数千星系与共和国决裂,并筹建大批机器人军队为政变做准备。纳布星的阿米达拉(娜塔丽·波特曼 Natalie Portman 饰)结束女王任期后以议员身份抵达考路斯坎星,决意为组建共和军队投出关键一票。欧比-旺?肯诺比(伊万?麦克格雷格 Ewan McGregor 饰)携长大了的阿纳金(海登·克里斯滕森 Hayden Christensen 饰)奉命保护阿米达拉的安全。在阿纳金护送阿米达拉返回纳布星避难的途中,二人情愫暗生,决定共同前往塔图因星寻找阿纳金之母。与此同时,欧比-旺追查刺客行迹一路深入吉诺西斯星,发现了杜库伯爵的阴谋,自己却深陷囹圄,危在旦夕……
  本片获2003年第75界奥斯卡最佳视觉效果奖提名。

◎获奖情况

  第75届奥斯卡金像奖(2003)
  最佳视觉效果(提名) Rob Coleman / 巴勃罗·赫尔曼 / 约翰·诺尔 / Ben Snow
Video
ID : 1
Format : HEVC
Format/Info : High Efficiency Video Coding
Format profile : Main [email protected]@Main
Codec ID : V_MPEGH/ISO/HEVC
Duration : 2 h 22 min
Bit rate : 12.3 Mb/s
Width : 3 840 pixels
Height : 1 608 pixels
Display aspect ratio : 2.40:1
Frame rate mode : Constant
Frame rate : 23.976 (24000/1001) FPS
Color space : YUV
Chroma subsampling : 4:2:0
Bit depth : 10 bits
Bits/(Pixel*Frame) : 0.083
Stream size : 12.2 GiB (70%)
Writing library : x265 3.2971180b100f8:[Windows][MSVC 1923][64 bit] 10bit
Encoding settings : cpuid=1111039 / frame-threads=4 / numa-pools=0,28 / wpp / no-pmode / no-pme / no-psnr / no-ssim / log-level=2 / input-csp=1 / input-res=3840x1608 / interlace=0 / total-frames=0 / level-idc=0 / high-tier=1 / uhd-bd=0 / ref=5 / no-allow-non-conformance / repeat-headers / annexb / no-aud / no-hrd / info / hash=0 / no-temporal-layers / open-gop / min-keyint=23 / keyint=250 / gop-lookahead=0 / bframes=8 / b-adapt=2 / b-pyramid / bframe-bias=0 / rc-lookahead=40 / lookahead-slices=0 / scenecut=40 / radl=0 / no-splice / no-intra-refresh / ctu=64 / min-cu-size=8 / no-rect / no-amp / max-tu-size=32 / tu-inter-depth=3 / tu-intra-depth=3 / limit-tu=0 / rdoq-level=1 / dynamic-rd=0.00 / no-ssim-rd / signhide / no-tskip / nr-intra=0 / nr-inter=0 / no-constrained-intra / strong-intra-smoothing / max-merge=5 / limit-refs=0 / no-limit-modes / me=3 / subme=4 / merange=57 / temporal-mvp / no-frame-dup / no-hme / weightp / weightb / no-analyze-src-pics / deblock=0:0 / no-sao / no-sao-non-deblock / rd=6 / selective-sao=0 / no-early-skip / rskip / no-fast-intra / no-tskip-fast / no-cu-lossless / b-intra / no-splitrd-skip / rdpenalty=0 / psy-rd=4.00 / psy-rdoq=8.00 / no-rd-refine / no-lossless / cbqpoffs=0 / crqpoffs=0 / rc=crf / crf=10.0 / qcomp=0.60 / qpstep=4 / stats-write=0 / stats-read=0 / ipratio=1.40 / pbratio=1.30 / aq-mode=2 / aq-strength=1.00 / cutree / zone-count=0 / no-strict-cbr / qg-size=32 / no-rc-grain / qpmax=69 / qpmin=0 / no-const-vbv / sar=0 / overscan=0 / videoformat=5 / range=0 / colorprim=9 / transfer=16 / colormatrix=9 / chromaloc=0 / display-window=0 / cll=0,0 / min-luma=0 / max-luma=1023 / log2-max-poc-lsb=8 / vui-timing-info / vui-hrd-info / slices=1 / no-opt-qp-pps / no-opt-ref-list-length-pps / no-multi-pass-opt-rps / scenecut-bias=0.05 / no-opt-cu-delta-qp / no-aq-motion / hdr / hdr-opt / no-dhdr10-opt / no-idr-recovery-sei / analysis-reuse-level=5 / scale-factor=0 / refine-intra=0 / refine-inter=0 / refine-mv=1 / refine-ctu-distortion=0 / no-limit-sao / ctu-info=0 / no-lowpass-dct / refine-analysis-type=0 / copy-pic=1 / max-ausize-factor=1.0 / no-dynamic-refine / no-single-sei / no-hevc-aq / no-svt / no-field / qp-adaptation-range=1.00
Default : Yes
Forced : No
Color range : Limited
Color primaries : BT.2020
Transfer characteristics : PQ
Matrix coefficients : BT.2020 non-constant

Audio #1
ID : 2
Format : DTS ES XXCH XLL
Format/Info : Digital Theater Systems
Commercial name : DTS-HD Master Audio
Codec ID : A_DTS
Duration : 2 h 22 min
Bit rate mode : Variable
Bit rate : 4 533 kb/s
Channel(s) : 7 channels
Channel layout : C L R Ls Rs LFE Cb
Sampling rate : 48.0 kHz
Frame rate : 93.750 FPS (512 SPF)
Bit depth : 24 bits
Compression mode : Lossless
Stream size : 4.51 GiB (26%)
Title : DTS-HD MA / 6.1 / 48 kHz / 4533 kbps / 24-bit
Language : English
Default : Yes
Forced : No

Audio #2
ID : 3
Format : AC-3
Format/Info : Audio Coding 3
Commercial name : Dolby Digital
Codec ID : A_AC3
Duration : 2 h 22 min
Bit rate mode : Constant
Bit rate : 224 kb/s
Channel(s) : 2 channels
Channel layout : L R
Sampling rate : 48.0 kHz
Frame rate : 31.250 FPS (1536 SPF)
Bit depth : 16 bits
Compression mode : Lossy
Stream size : 228 MiB (1%)
Title : Commentary 1 / Dolby Digital / 2.0 / 48 kHz / 224 kbps
Language : English
Service kind : Complete Main
Default : No
Forced : No

Audio #3
ID : 4
Format : AC-3
Format/Info : Audio Coding 3
Commercial name : Dolby Digital
Codec ID : A_AC3
Duration : 2 h 22 min
Bit rate mode : Constant
Bit rate : 224 kb/s
Channel(s) : 2 channels
Channel layout : L R
Sampling rate : 48.0 kHz
Frame rate : 31.250 FPS (1536 SPF)
Bit depth : 16 bits
Compression mode : Lossy
Stream size : 228 MiB (1%)
Title : Commentary 2 / Dolby Digital / 2.0 / 48 kHz / 224 kbps
Language : English
Service kind : Complete Main
Default : No
Forced : No

Text #1
ID : 5
Format : PGS
Muxing mode : zlib
Codec ID : S_HDMV/PGS
Codec ID/Info : Picture based subtitle format used on BDs/HD-DVDs
Duration : 2 h 22 min
Bit rate : 36.9 kb/s
Count of elements : 2434
Stream size : 37.6 MiB (0%)
Language : English
Default : No
Forced : No

Text #2
ID : 6
Format : PGS
Muxing mode : zlib
Codec ID : S_HDMV/PGS
Codec ID/Info : Picture based subtitle format used on BDs/HD-DVDs
Duration : 2 h 22 min
Bit rate : 41.6 kb/s
Count of elements : 2654
Stream size : 42.4 MiB (0%)
Title : SDH
Language : English
Default : No
Forced : No

Text #3
ID : 7
Format : PGS
Muxing mode : zlib
Codec ID : S_HDMV/PGS
Codec ID/Info : Picture based subtitle format used on BDs/HD-DVDs
Duration : 2 h 22 min
Bit rate : 249 b/s
Count of elements : 36
Stream size : 260 KiB (0%)
Title : non-English parts only
Language : English
Default : No
Forced : No

Text #4
ID : 8
Format : PGS
Muxing mode : zlib
Codec ID : S_HDMV/PGS
Codec ID/Info : Picture based subtitle format used on BDs/HD-DVDs
Duration : 2 h 22 min
Bit rate : 36.7 kb/s
Count of elements : 2182
Stream size : 37.3 MiB (0%)
Language : Bulgarian
Default : No
Forced : No

Text #5
ID : 9
Format : PGS
Muxing mode : zlib
Codec ID : S_HDMV/PGS
Codec ID/Info : Picture based subtitle format used on BDs/HD-DVDs
Duration : 2 h 22 min
Bit rate : 33.1 kb/s
Count of elements : 2366
Stream size : 33.7 MiB (0%)
Title : Cantonese
Language : Chinese
Default : No
Forced : No

Text #6
ID : 10
Format : PGS
Muxing mode : zlib
Codec ID : S_HDMV/PGS
Codec ID/Info : Picture based subtitle format used on BDs/HD-DVDs
Duration : 2 h 22 min
Bit rate : 39.0 kb/s
Count of elements : 2516
Stream size : 39.6 MiB (0%)
Title : Mandarin Traditional
Language : Chinese
Default : No
Forced : No

Text #7
ID : 11
Format : PGS
Muxing mode : zlib
Codec ID : S_HDMV/PGS
Codec ID/Info : Picture based subtitle format used on BDs/HD-DVDs
Duration : 2 h 22 min
Bit rate : 31.2 kb/s
Count of elements : 2220
Stream size : 31.7 MiB (0%)
Language : Croatian
Default : No
Forced : No

Text #8
ID : 12
Format : PGS
Muxing mode : zlib
Codec ID : S_HDMV/PGS
Codec ID/Info : Picture based subtitle format used on BDs/HD-DVDs
Duration : 2 h 22 min
Bit rate : 34.1 kb/s
Count of elements : 1956
Stream size : 34.7 MiB (0%)
Language : Czech
Default : No
Forced : No

Text #9
ID : 13
Format : PGS
Muxing mode : zlib
Codec ID : S_HDMV/PGS
Codec ID/Info : Picture based subtitle format used on BDs/HD-DVDs
Duration : 2 h 22 min
Bit rate : 34.5 kb/s
Count of elements : 2148
Stream size : 35.2 MiB (0%)
Language : Danish
Default : No
Forced : No

Text #10
ID : 14
Format : PGS
Muxing mode : zlib
Codec ID : S_HDMV/PGS
Codec ID/Info : Picture based subtitle format used on BDs/HD-DVDs
Duration : 2 h 22 min
Bit rate : 30.8 kb/s
Count of elements : 2206
Stream size : 31.3 MiB (0%)
Language : Dutch
Default : No
Forced : No

Text #11
ID : 15
Format : PGS
Muxing mode : zlib
Codec ID : S_HDMV/PGS
Codec ID/Info : Picture based subtitle format used on BDs/HD-DVDs
Duration : 2 h 22 min
Bit rate : 38.4 kb/s
Count of elements : 2392
Stream size : 39.0 MiB (0%)
Language : Estonian
Default : No
Forced : No

Text #12
ID : 16
Format : PGS
Muxing mode : zlib
Codec ID : S_HDMV/PGS
Codec ID/Info : Picture based subtitle format used on BDs/HD-DVDs
Duration : 2 h 22 min
Bit rate : 30.5 kb/s
Count of elements : 2366
Stream size : 31.1 MiB (0%)
Language : Finnish
Default : No
Forced : No

Text #13
ID : 17
Format : PGS
Muxing mode : zlib
Codec ID : S_HDMV/PGS
Codec ID/Info : Picture based subtitle format used on BDs/HD-DVDs
Duration : 2 h 22 min
Bit rate : 33.8 kb/s
Count of elements : 2358
Stream size : 34.4 MiB (0%)
Language : French
Default : No
Forced : No

Text #14
ID : 18
Format : PGS
Muxing mode : zlib
Codec ID : S_HDMV/PGS
Codec ID/Info : Picture based subtitle format used on BDs/HD-DVDs
Duration : 2 h 22 min
Bit rate : 37.7 kb/s
Count of elements : 2444
Stream size : 38.4 MiB (0%)
Language : Italian
Default : No
Forced : No

Text #15
ID : 19
Format : PGS
Muxing mode : zlib
Codec ID : S_HDMV/PGS
Codec ID/Info : Picture based subtitle format used on BDs/HD-DVDs
Duration : 2 h 13 min
Bit rate : 18.5 kb/s
Count of elements : 2336
Stream size : 17.6 MiB (0%)
Language : Japanese
Default : No
Forced : No

Text #16
ID : 20
Format : PGS
Muxing mode : zlib
Codec ID : S_HDMV/PGS
Codec ID/Info : Picture based subtitle format used on BDs/HD-DVDs
Duration : 2 h 22 min
Bit rate : 30.8 kb/s
Count of elements : 2442
Stream size : 31.3 MiB (0%)
Language : Korean
Default : No
Forced : No

Text #17
ID : 21
Format : PGS
Muxing mode : zlib
Codec ID : S_HDMV/PGS
Codec ID/Info : Picture based subtitle format used on BDs/HD-DVDs
Duration : 2 h 22 min
Bit rate : 35.0 kb/s
Count of elements : 2438
Stream size : 35.6 MiB (0%)
Language : Latvian
Default : No
Forced : No

Text #18
ID : 22
Format : PGS
Muxing mode : zlib
Codec ID : S_HDMV/PGS
Codec ID/Info : Picture based subtitle format used on BDs/HD-DVDs
Duration : 2 h 22 min
Bit rate : 37.8 kb/s
Count of elements : 2338
Stream size : 38.4 MiB (0%)
Language : Lithuanian
Default : No
Forced : No

Text #19
ID : 23
Format : PGS
Muxing mode : zlib
Codec ID : S_HDMV/PGS
Codec ID/Info : Picture based subtitle format used on BDs/HD-DVDs
Duration : 2 h 22 min
Bit rate : 31.4 kb/s
Count of elements : 2134
Stream size : 32.0 MiB (0%)
Language : Norwegian
Default : No
Forced : No

Text #20
ID : 24
Format : PGS
Muxing mode : zlib
Codec ID : S_HDMV/PGS
Codec ID/Info : Picture based subtitle format used on BDs/HD-DVDs
Duration : 2 h 22 min
Bit rate : 34.8 kb/s
Count of elements : 2312
Stream size : 35.4 MiB (0%)
Title : Brazilian
Language : Portuguese
Default : No
Forced : No

Text #21
ID : 25
Format : PGS
Muxing mode : zlib
Codec ID : S_HDMV/PGS
Codec ID/Info : Picture based subtitle format used on BDs/HD-DVDs
Duration : 2 h 22 min
Bit rate : 33.2 kb/s
Count of elements : 1808
Stream size : 33.7 MiB (0%)
Language : Romanian
Default : No
Forced : No

Text #22
ID : 26
Format : PGS
Muxing mode : zlib
Codec ID : S_HDMV/PGS
Codec ID/Info : Picture based subtitle format used on BDs/HD-DVDs
Duration : 2 h 22 min
Bit rate : 43.6 kb/s
Count of elements : 2460
Stream size : 44.4 MiB (0%)
Language : Russian
Default : No
Forced : No

Text #23
ID : 27
Format : PGS
Muxing mode : zlib
Codec ID : S_HDMV/PGS
Codec ID/Info : Picture based subtitle format used on BDs/HD-DVDs
Duration : 2 h 22 min
Bit rate : 32.2 kb/s
Count of elements : 2138
Stream size : 32.7 MiB (0%)
Language : Slovenian
Default : No
Forced : No

Text #24
ID : 28
Format : PGS
Muxing mode : zlib
Codec ID : S_HDMV/PGS
Codec ID/Info : Picture based subtitle format used on BDs/HD-DVDs
Duration : 2 h 22 min
Bit rate : 35.4 kb/s
Count of elements : 2282
Stream size : 36.0 MiB (0%)
Title : Latin American
Language : Spanish
Default : No
Forced : No

Text #25
ID : 29
Format : PGS
Muxing mode : zlib
Codec ID : S_HDMV/PGS
Codec ID/Info : Picture based subtitle format used on BDs/HD-DVDs
Duration : 2 h 22 min
Bit rate : 31.9 kb/s
Count of elements : 2008
Stream size : 32.5 MiB (0%)
Language : Swedish
Default : No
Forced : No

Text #26
ID : 30
Format : PGS
Muxing mode : zlib
Codec ID : S_HDMV/PGS
Codec ID/Info : Picture based subtitle format used on BDs/HD-DVDs
Duration : 2 h 22 min
Bit rate : 31.3 kb/s
Count of elements : 2418
Stream size : 31.9 MiB (0%)
Language : Thai
Default : No
Forced : No

Text #27
ID : 31
Format : PGS
Muxing mode : zlib
Codec ID : S_HDMV/PGS
Codec ID/Info : Picture based subtitle format used on BDs/HD-DVDs
Duration : 2 h 22 min
Bit rate : 34.2 kb/s
Count of elements : 1904
Stream size : 34.8 MiB (0%)
Language : Turkish
Default : No
Forced : No

Menu
00:00:00.000 : en:Opening Logos
00:00:23.440 : en:Attack of the Clones
00:01:50.527 : en:Return to Coruscant
00:04:22.095 : en:Chancellors Meeting
00:07:00.003 : en:Old Friends
00:10:28.962 : en:Assassins
00:14:19.901 : en:Speed Chase
00:21:35.294 : en:Into the Club
00:24:48.237 : en:New Assignments
00:29:45.867 : en:Traveling Incognito
00:31:33.475 : en:Dex\'s Diner
00:33:48.526 : en:Jedi Archives
00:34:50.505 : en:\"Encouraged to Love\"
00:36:05.121 : en:Yoda and the Younglins
00:38:25.929 : en:Return to Naboo
00:39:25.363 : en:Audience with the Queen
00:40:56.371 : en:Kamino Arrival
00:42:12.780 : en:Meeting Lama Su
00:44:02.014 : en:Stolen Kiss
00:45:50.414 : en:Inspeting the Clones
00:47:50.076 : en:Teasing a Senator
00:50:21.018 : en:Jango\'s Apartment
00:53:01.428 : en:Forbidden Love
00:56:44.818 : en:Obi-Wan\'s Report
00:58:56.700 : en:Nightmare
01:00:46.059 : en:Obi-Wan vs. Jango
01:03:41.192 : en:Back to Tatoonie
01:06:24.355 : en:Asteroid Chase
01:11:18.774 : en:Lar\'s Homestead
01:14:01.354 : en:Anakin\'s Search
01:15:23.477 : en:Dook\'s Separatist Plot
01:17:48.873 : en:Tusken Camp
01:21:40.354 : en:Out of Range
01:23:46.897 : en:\"You\'re Not All-Powerful\"
01:28:10.160 : en:Enemies Revealed
01:30:52.906 : en:Obi-Wan Captive
01:33:38.488 : en:Emergency Powers
01:35:27.847 : en:Droid Factory
01:42:44.867 : en:Love Pledge
01:45:14.016 : en:The Arena
01:49:53.629 : en:\"This Party Is Over\"
01:56:22.475 : en:Yoda\'s Cavalry
01:57:47.602 : en:Clone War
02:00:29.180 : en:War Room
02:04:48.981 : en:Duel with Dooku
02:07:41.946 : en:Master Yoda
02:11:23.667 : en:\"Well Done Lord Tyranus\"
02:12:54.884 : en:\"Begun, the Clone Wars Has\"
02:14:49.248 : en:Secret Union
02:15:54.938 : en:End Credits





1 个附件 售价 大小 下载 时间

Star.Wars.Episode.II.Attack.Of.The.Clones.2002.2160p.DSNP.WEBRip.x265.10bit.HDR.DTS-HD.MA.6.1-TrollUHD.torrent 0 金币 88.44K 1960 次 10天前

#1楼
发帖时间:2019-12-03 18:13:08   |   回复数:6
911degrees
隐世仙人♂
非常感谢,谢谢分享
10天前 #2楼
kola13
一派掌门
感谢分享
10天前 #3楼
liyouchai
隐世仙人♂
谢谢楼主分享资源
10天前 #4楼
jokingcheung
一代宗师
谢谢分享
10天前 #5楼
LAMKIMBO
武林高手
謝謝分享
9天前 #6楼
tanchoohoon
武林盟主
感谢楼主的无私分享
9天前 #7楼
游客组