coor
武林高手

[更 早] [欧美] [动作] [BD-4K] 星球大战 Star.Wars.Episode.IV.A.New.Hope.1977.2160p.DSNP.WEBRip.x265.10bit.HDR.DTS-H

-->

帖子完整标题:星球大战 Star.Wars.Episode.IV.A.New.Hope.1977.2160p.DSNP.WEBRip.x265.10bit.HDR.DTS-HD.MA.6.1-TrollUHD 19.94GB




◎译  名 星球大战 / Star Wars: Episode IV - A New Hope / 星球大战第四集:新希望 / 星际大战 / 星际大战四部曲:曙光乍现
◎片  名 Star Wars
◎年  代 1977
◎产  地 美国
◎类  别 动作 / 科幻 / 冒险
◎语  言 英语
◎上映日期 1977-05-25(美国)
◎IMDb评分 8.6/10 from 1119094 users
◎IMDb链接 http://www.imdb.com/title/tt0076759
◎豆瓣评分 8.4/10 from 83547 users
◎豆瓣链接 https://movie.douban.com/subject/1293838/
◎片  长 121分钟
◎导  演 乔治·卢卡斯 George Lucas
◎编  剧 乔治·卢卡斯 George Lucas
◎主  演 哈里森·福特 Harrison Ford
      马克·哈米尔 Mark Hamill
      凯丽·费雪 Carrie Fisher
      彼得·库欣 Peter Cushing
      亚利克·基尼斯 Alec Guinness
      彼特·梅靥 Peter Mayhew
      大卫·鲍罗斯 David Prowse
      詹姆斯·厄尔·琼斯 James Earl Jones


◎标  签 科幻 | 星球大战 | 美国 | 经典 | 1977 | 动作 | 冒险 | 战争

◎简  介

  遥远星系发生叛乱,银河共和国被推翻,奥尔德兰星的莉亚公主(卡里?费什尔 Carrie Fisher 饰)领导抵抗组织对抗银河帝国,却不幸被银河帝国的维德勋爵(大卫?普劳斯 David Prowse 饰)所俘。机器人R2-D2携银河帝国新武器“死星”的结构图与同伴翻译机器人C-3PO逃至塔图因星,途中被加瓦人抓住卖给青年卢克?天行者(马克?哈米尔 Mark Hamill 饰)的叔父。在卢克的帮助下,众人阴错阳差找到了隐居的绝地武士欧比-旺?肯诺比(亚历克?吉尼斯 Alec Guinness 饰)。欧比-旺交给卢克绝地之道,并带卢克与两机器人到港口城市茅斯伊斯垒,雇佣走私者韩?索罗(哈里森?福特饰)的千年隼飞船前往奥尔德兰……
本片获第50界奥斯卡最佳艺术指导,最佳服装设计,最佳视觉效果,最佳剪辑,最佳原创音乐,最佳声效六项大奖及特殊贡献奖(本?伯特 Ben Burtt),并获最佳电影,最佳男配角(亚历克?吉尼斯),最佳导演(乔治?卢卡斯),最佳原创电影音乐四项提名。

◎获奖情况

  第50届奥斯卡金像奖(1978)
  最佳影片(提名) 加里·库尔茨
  最佳导演(提名) 乔治·卢卡斯
  最佳男配角(提名) 亚历克·吉尼斯
  最佳原创剧本(提名) 乔治·卢卡斯
  最佳剪辑 赵汝钜 / 保罗·赫希 / Marcia Lucas
  最佳视觉效果 约翰·戴克斯特拉 / 理查德·艾德兰德 / John Stears / Robert Blalack / 格兰特·麦丘恩
  最佳音响 唐·麦克杜格尔 / Bob Minkler / Derek Ball / Ray West
  最佳艺术指导 诺曼·雷诺兹 / 罗杰·克里斯蒂安 / John Barry / 莱斯利·迪利
  最佳服装设计 John Mollo
  最佳原创配乐 约翰·威廉姆斯
  特别成就奖 本·贝尔特

  第3届报知映画赏(1978)
  海外作品奖 乔治·卢卡斯



Video
ID : 1
Format : HEVC
Format/Info : High Efficiency Video Coding
Format profile : Main [email protected]@Main
Codec ID : V_MPEGH/ISO/HEVC
Duration : 2 h 4 min
Bit rate : 17.9 Mb/s
Width : 3 840 pixels
Height : 1 608 pixels
Display aspect ratio : 2.40:1
Frame rate mode : Constant
Frame rate : 23.976 (24000/1001) FPS
Color space : YUV
Chroma subsampling : 4:2:0
Bit depth : 10 bits
Bits/(Pixel*Frame) : 0.121
Stream size : 15.6 GiB (78%)
Writing library : x265 3.2971180b100f8:[Windows][MSVC 1923][64 bit] 10bit
Encoding settings : cpuid=1111039 / frame-threads=4 / numa-pools=28,0 / wpp / no-pmode / no-pme / no-psnr / no-ssim / log-level=2 / input-csp=1 / input-res=3840x1608 / interlace=0 / total-frames=0 / level-idc=0 / high-tier=1 / uhd-bd=0 / ref=5 / no-allow-non-conformance / repeat-headers / annexb / no-aud / no-hrd / info / hash=0 / no-temporal-layers / open-gop / min-keyint=23 / keyint=250 / gop-lookahead=0 / bframes=8 / b-adapt=2 / b-pyramid / bframe-bias=0 / rc-lookahead=40 / lookahead-slices=0 / scenecut=40 / radl=0 / no-splice / no-intra-refresh / ctu=64 / min-cu-size=8 / no-rect / no-amp / max-tu-size=32 / tu-inter-depth=3 / tu-intra-depth=3 / limit-tu=0 / rdoq-level=1 / dynamic-rd=0.00 / no-ssim-rd / signhide / no-tskip / nr-intra=0 / nr-inter=0 / no-constrained-intra / strong-intra-smoothing / max-merge=5 / limit-refs=0 / no-limit-modes / me=3 / subme=4 / merange=57 / temporal-mvp / no-frame-dup / no-hme / weightp / weightb / no-analyze-src-pics / deblock=0:0 / no-sao / no-sao-non-deblock / rd=6 / selective-sao=0 / no-early-skip / rskip / no-fast-intra / no-tskip-fast / no-cu-lossless / b-intra / no-splitrd-skip / rdpenalty=0 / psy-rd=4.00 / psy-rdoq=8.00 / no-rd-refine / no-lossless / cbqpoffs=0 / crqpoffs=0 / rc=crf / crf=16.0 / qcomp=0.60 / qpstep=4 / stats-write=0 / stats-read=0 / ipratio=1.40 / pbratio=1.30 / aq-mode=2 / aq-strength=1.00 / cutree / zone-count=0 / no-strict-cbr / qg-size=32 / no-rc-grain / qpmax=69 / qpmin=0 / no-const-vbv / sar=0 / overscan=0 / videoformat=5 / range=0 / colorprim=9 / transfer=16 / colormatrix=9 / chromaloc=0 / display-window=0 / cll=0,0 / min-luma=0 / max-luma=1023 / log2-max-poc-lsb=8 / vui-timing-info / vui-hrd-info / slices=1 / no-opt-qp-pps / no-opt-ref-list-length-pps / no-multi-pass-opt-rps / scenecut-bias=0.05 / no-opt-cu-delta-qp / no-aq-motion / hdr / hdr-opt / no-dhdr10-opt / no-idr-recovery-sei / analysis-reuse-level=5 / scale-factor=0 / refine-intra=0 / refine-inter=0 / refine-mv=1 / refine-ctu-distortion=0 / no-limit-sao / ctu-info=0 / no-lowpass-dct / refine-analysis-type=0 / copy-pic=1 / max-ausize-factor=1.0 / no-dynamic-refine / no-single-sei / no-hevc-aq / no-svt / no-field / qp-adaptation-range=1.00
Default : Yes
Forced : No
Color range : Limited
Color primaries : BT.2020
Transfer characteristics : PQ
Matrix coefficients : BT.2020 non-constant

Audio #1
ID : 2
Format : DTS ES XXCH XLL
Format/Info : Digital Theater Systems
Commercial name : DTS-HD Master Audio
Codec ID : A_DTS
Duration : 2 h 4 min
Bit rate mode : Variable
Bit rate : 4 069 kb/s
Channel(s) : 7 channels
Channel layout : C L R Ls Rs LFE Cb
Sampling rate : 48.0 kHz
Frame rate : 93.750 FPS (512 SPF)
Bit depth : 24 bits
Compression mode : Lossless
Stream size : 3.55 GiB (18%)
Title : English DTS-HDMA 6.1
Language : English
Default : Yes
Forced : No

Audio #2
ID : 3
Format : AC-3
Format/Info : Audio Coding 3
Commercial name : Dolby Digital
Codec ID : A_AC3
Duration : 2 h 4 min
Bit rate mode : Constant
Bit rate : 224 kb/s
Channel(s) : 2 channels
Channel layout : L R
Sampling rate : 48.0 kHz
Frame rate : 31.250 FPS (1536 SPF)
Bit depth : 16 bits
Compression mode : Lossy
Stream size : 200 MiB (1%)
Title : Commentary with George Lucas, Carrie Fisher, Ben Burtt and Dennis Muren
Language : English
Service kind : Complete Main
Default : No
Forced : No

Audio #3
ID : 4
Format : AC-3
Format/Info : Audio Coding 3
Commercial name : Dolby Digital
Codec ID : A_AC3
Duration : 2 h 4 min
Bit rate mode : Constant
Bit rate : 224 kb/s
Channel(s) : 2 channels
Channel layout : L R
Sampling rate : 48.0 kHz
Frame rate : 31.250 FPS (1536 SPF)
Bit depth : 16 bits
Compression mode : Lossy
Stream size : 200 MiB (1%)
Title : Commentary from Archival Interviews with Cast and Crew
Language : English
Service kind : Complete Main
Default : No
Forced : No

Text #1
ID : 5
Format : PGS
Muxing mode : zlib
Codec ID : S_HDMV/PGS
Codec ID/Info : Picture based subtitle format used on BDs/HD-DVDs
Duration : 2 h 4 min
Bit rate : 53.0 kb/s
Count of elements : 2606
Stream size : 47.3 MiB (0%)
Language : English
Default : No
Forced : No

Text #2
ID : 6
Format : PGS
Muxing mode : zlib
Codec ID : S_HDMV/PGS
Codec ID/Info : Picture based subtitle format used on BDs/HD-DVDs
Duration : 2 h 4 min
Bit rate : 57.3 kb/s
Count of elements : 3452
Stream size : 51.1 MiB (0%)
Title : SDH
Language : English
Default : No
Forced : No

Text #3
ID : 7
Format : PGS
Muxing mode : zlib
Codec ID : S_HDMV/PGS
Codec ID/Info : Picture based subtitle format used on BDs/HD-DVDs
Duration : 2 h 4 min
Bit rate : 487 b/s
Count of elements : 60
Stream size : 445 KiB (0%)
Title : non-English parts only
Language : English
Default : No
Forced : No

Text #4
ID : 8
Format : PGS
Muxing mode : zlib
Codec ID : S_HDMV/PGS
Codec ID/Info : Picture based subtitle format used on BDs/HD-DVDs
Duration : 2 h 4 min
Bit rate : 45.2 kb/s
Count of elements : 2224
Stream size : 40.2 MiB (0%)
Language : Bulgarian
Default : No
Forced : No

Text #5
ID : 9
Format : PGS
Muxing mode : zlib
Codec ID : S_HDMV/PGS
Codec ID/Info : Picture based subtitle format used on BDs/HD-DVDs
Duration : 2 h 4 min
Bit rate : 46.7 kb/s
Count of elements : 2778
Stream size : 41.5 MiB (0%)
Title : Cantonese
Language : Chinese
Default : No
Forced : No

Text #6
ID : 10
Format : PGS
Muxing mode : zlib
Codec ID : S_HDMV/PGS
Codec ID/Info : Picture based subtitle format used on BDs/HD-DVDs
Duration : 2 h 4 min
Bit rate : 45.6 kb/s
Count of elements : 3062
Stream size : 40.5 MiB (0%)
Title : Mandarin Traditional
Language : Chinese
Default : No
Forced : No

Text #7
ID : 11
Format : PGS
Muxing mode : zlib
Codec ID : S_HDMV/PGS
Codec ID/Info : Picture based subtitle format used on BDs/HD-DVDs
Duration : 2 h 4 min
Bit rate : 41.2 kb/s
Count of elements : 2350
Stream size : 36.6 MiB (0%)
Language : Croatian
Default : No
Forced : No

Text #8
ID : 12
Format : PGS
Muxing mode : zlib
Codec ID : S_HDMV/PGS
Codec ID/Info : Picture based subtitle format used on BDs/HD-DVDs
Duration : 2 h 4 min
Bit rate : 38.6 kb/s
Count of elements : 2400
Stream size : 34.3 MiB (0%)
Language : Czech
Default : No
Forced : No

Text #9
ID : 13
Format : PGS
Muxing mode : zlib
Codec ID : S_HDMV/PGS
Codec ID/Info : Picture based subtitle format used on BDs/HD-DVDs
Duration : 2 h 4 min
Bit rate : 38.3 kb/s
Count of elements : 2032
Stream size : 34.1 MiB (0%)
Language : Danish
Default : No
Forced : No

Text #10
ID : 14
Format : PGS
Muxing mode : zlib
Codec ID : S_HDMV/PGS
Codec ID/Info : Picture based subtitle format used on BDs/HD-DVDs
Duration : 2 h 4 min
Bit rate : 34.7 kb/s
Count of elements : 2366
Stream size : 30.8 MiB (0%)
Language : Dutch
Default : No
Forced : No

Text #11
ID : 15
Format : PGS
Muxing mode : zlib
Codec ID : S_HDMV/PGS
Codec ID/Info : Picture based subtitle format used on BDs/HD-DVDs
Duration : 2 h 4 min
Bit rate : 37.4 kb/s
Count of elements : 2056
Stream size : 33.4 MiB (0%)
Language : Finnish
Default : No
Forced : No

Text #12
ID : 16
Format : PGS
Muxing mode : zlib
Codec ID : S_HDMV/PGS
Codec ID/Info : Picture based subtitle format used on BDs/HD-DVDs
Duration : 2 h 4 min
Bit rate : 44.7 kb/s
Count of elements : 2576
Stream size : 39.8 MiB (0%)
Language : French
Default : No
Forced : No

Text #13
ID : 17
Format : PGS
Muxing mode : zlib
Codec ID : S_HDMV/PGS
Codec ID/Info : Picture based subtitle format used on BDs/HD-DVDs
Duration : 2 h 4 min
Bit rate : 51.2 kb/s
Count of elements : 2598
Stream size : 45.6 MiB (0%)
Language : Italian
Default : No
Forced : No

Text #14
ID : 18
Format : PGS
Muxing mode : zlib
Codec ID : S_HDMV/PGS
Codec ID/Info : Picture based subtitle format used on BDs/HD-DVDs
Duration : 1 h 58 min
Bit rate : 19.6 kb/s
Count of elements : 2564
Stream size : 16.6 MiB (0%)
Language : Japanese
Default : No
Forced : No

Text #15
ID : 19
Format : PGS
Muxing mode : zlib
Codec ID : S_HDMV/PGS
Codec ID/Info : Picture based subtitle format used on BDs/HD-DVDs
Duration : 2 h 4 min
Bit rate : 38.7 kb/s
Count of elements : 2760
Stream size : 34.4 MiB (0%)
Language : Korean
Default : No
Forced : No

Text #16
ID : 20
Format : PGS
Muxing mode : zlib
Codec ID : S_HDMV/PGS
Codec ID/Info : Picture based subtitle format used on BDs/HD-DVDs
Duration : 2 h 4 min
Bit rate : 33.5 kb/s
Count of elements : 2034
Stream size : 29.9 MiB (0%)
Language : Norwegian
Default : No
Forced : No

Text #17
ID : 21
Format : PGS
Muxing mode : zlib
Codec ID : S_HDMV/PGS
Codec ID/Info : Picture based subtitle format used on BDs/HD-DVDs
Duration : 2 h 4 min
Bit rate : 50.0 kb/s
Count of elements : 2628
Stream size : 44.6 MiB (0%)
Title : Brazilian
Language : Portuguese
Default : No
Forced : No

Text #18
ID : 22
Format : PGS
Muxing mode : zlib
Codec ID : S_HDMV/PGS
Codec ID/Info : Picture based subtitle format used on BDs/HD-DVDs
Duration : 2 h 4 min
Bit rate : 58.0 kb/s
Count of elements : 2634
Stream size : 51.6 MiB (0%)
Language : Romanian
Default : No
Forced : No

Text #19
ID : 23
Format : PGS
Muxing mode : zlib
Codec ID : S_HDMV/PGS
Codec ID/Info : Picture based subtitle format used on BDs/HD-DVDs
Duration : 2 h 4 min
Bit rate : 60.8 kb/s
Count of elements : 2686
Stream size : 54.0 MiB (0%)
Language : Russian
Default : No
Forced : No

Text #20
ID : 24
Format : PGS
Muxing mode : zlib
Codec ID : S_HDMV/PGS
Codec ID/Info : Picture based subtitle format used on BDs/HD-DVDs
Duration : 2 h 4 min
Bit rate : 48.4 kb/s
Count of elements : 2632
Stream size : 43.1 MiB (0%)
Language : Slovenian
Default : No
Forced : No

Text #21
ID : 25
Format : PGS
Muxing mode : zlib
Codec ID : S_HDMV/PGS
Codec ID/Info : Picture based subtitle format used on BDs/HD-DVDs
Duration : 2 h 4 min
Bit rate : 48.2 kb/s
Count of elements : 2610
Stream size : 43.0 MiB (0%)
Title : Latin American
Language : Spanish
Default : No
Forced : No

Text #22
ID : 26
Format : PGS
Muxing mode : zlib
Codec ID : S_HDMV/PGS
Codec ID/Info : Picture based subtitle format used on BDs/HD-DVDs
Duration : 2 h 4 min
Bit rate : 36.5 kb/s
Count of elements : 2040
Stream size : 32.6 MiB (0%)
Language : Swedish
Default : No
Forced : No

Text #23
ID : 27
Format : PGS
Muxing mode : zlib
Codec ID : S_HDMV/PGS
Codec ID/Info : Picture based subtitle format used on BDs/HD-DVDs
Duration : 2 h 4 min
Bit rate : 39.2 kb/s
Count of elements : 2940
Stream size : 34.9 MiB (0%)
Language : Thai
Default : No
Forced : No

Text #24
ID : 28
Format : PGS
Muxing mode : zlib
Codec ID : S_HDMV/PGS
Codec ID/Info : Picture based subtitle format used on BDs/HD-DVDs
Duration : 2 h 4 min
Bit rate : 54.3 kb/s
Count of elements : 2624
Stream size : 48.3 MiB (0%)
Language : Turkish
Default : No
Forced : No

Menu
00:00:00.000 : en:00:00:00.000
00:00:21.021 : en:00:00:21.021
00:01:53.405 : en:00:01:53.405
00:04:52.792 : en:00:04:52.792
00:07:28.281 : en:00:07:28.281
00:08:54.868 : en:00:08:54.868
00:11:21.389 : en:00:11:21.389
00:15:40.231 : en:00:15:40.231
00:19:40.179 : en:00:19:40.179
00:23:33.203 : en:00:23:33.203
00:25:32.614 : en:00:25:32.614
00:27:45.497 : en:00:27:45.497
00:29:12.709 : en:00:29:12.709
00:32:34.077 : en:00:32:34.077
00:34:53.008 : en:00:34:53.008
00:36:54.212 : en:00:36:54.212
00:39:05.635 : en:00:39:05.635
00:41:42.291 : en:00:41:42.291
00:42:31.549 : en:00:42:31.549
00:44:51.731 : en:00:44:51.731
00:47:52.620 : en:00:47:52.620
00:49:57.995 : en:00:49:57.995
00:51:13.696 : en:00:51:13.696
00:52:40.741 : en:00:52:40.741
00:54:12.332 : en:00:54:12.332
00:56:59.916 : en:00:56:59.916
00:59:14.176 : en:00:59:14.176
01:03:10.829 : en:01:03:10.829
01:06:16.472 : en:01:06:16.472
01:08:21.973 : en:01:08:21.973
01:12:32.390 : en:01:12:32.390
01:14:12.657 : en:01:14:12.657
01:17:13.712 : en:01:17:13.712
01:19:09.328 : en:01:19:09.328
01:21:29.384 : en:01:21:29.384
01:25:00.220 : en:01:25:00.220
01:27:02.092 : en:01:27:02.092
01:29:56.182 : en:01:29:56.182
01:33:48.456 : en:01:33:48.456
01:36:39.877 : en:01:36:39.877
01:38:06.756 : en:01:38:06.756
01:39:37.513 : en:01:39:37.513
01:41:24.996 : en:01:41:24.996
01:42:37.401 : en:01:42:37.401
01:45:02.630 : en:01:45:02.630
01:49:42.785 : en:01:49:42.785
01:55:18.912 : en:01:55:18.912
01:57:47.394 : en:01:57:47.394
01:58:28.518 : en:01:58:28.518
02:00:14.499 : en:02:00:14.499





1 个附件 售价 大小 下载 时间

Star.Wars.Episode.IV.A.New.Hope.1977.2160p.DSNP.WEBRip.x265.10bit.HDR.DTS-HD.MA.6.1-TrollUHD.torrent 0 金币 100.33K 2660 次 10天前

#1楼
发帖时间:2019-12-03 18:09:13   |   回复数:5
911degrees
隐世仙人♂
非常感谢,谢谢分享
10天前 #2楼
kola13
一派掌门
感谢分享
10天前 #3楼
liyouchai
隐世仙人♂
谢谢楼主分享资源
10天前 #4楼
jokingcheung
一代宗师
谢谢分享
10天前 #5楼
LAMKIMBO
武林高手
謝謝分享
9天前 #6楼
游客组