coor
武林高手

[更 早] [欧美] [动作] [BD-4K] 星球大战2:帝国反击战/星球大战5:帝国反击战 Star.Wars.Episode.V.The.Empire.Strikes.Back.1980.2160p.D

-->

帖子完整标题:星球大战2:帝国反击战/星球大战5:帝国反击战 Star.Wars.Episode.V.The.Empire.Strikes.Back.1980.2160p.DSNP.WEBRip.x265.10bit.HDR.DTS-HD.MA.6.1-TrollUHD 21.49GB




◎译  名 星球大战2:帝国反击战 / 星球大战5:帝国反击战 / 星球大战第五集:帝国反击战 / 星际大战五部曲:帝国大反击
◎片  名 Star Wars: Episode V - The Empire Strikes Back
◎年  代 1980
◎产  地 美国
◎类  别 动作 / 科幻 / 冒险
◎语  言 英语
◎上映日期 1980-05-21(美国)
◎IMDb评分 8.7/10 from 1065584 users
◎IMDb链接 http://www.imdb.com/title/tt0080684
◎豆瓣评分 8.3/10 from 65881 users
◎豆瓣链接 https://movie.douban.com/subject/1296528/
◎片  长 124分钟
◎导  演 Irvin Kershner
◎编  剧 George Lucas / Lawrence Kasdan / Leigh Brackett
◎主  演 马克·哈米尔 Mark Hamill
      Harrison Ford
      Carrie Fisher
      Billy Dee Williams
      Anthony Daniels
      David Prowse
      Peter Mayhew
      肯尼·贝克 Kenny Baker
      Frank Oz
      Alec Guinness


◎标  签 科幻 | 星球大战 | 美国 | 经典 | 1980 | 动作 | 冒险 | 战争

◎简  介

  维德勋爵(大卫?普劳斯 David Prowse 饰)把抵抗力量赶出基地,并派出数以千计的探针寻找卢克?天行者(马克?哈米尔 Mark Hamill 饰)。抵抗力量埋伏到冰天雪地的哈斯星,卢克在一次巡逻任务中意外被雪人所俘,运用“原力”逃生后晕厥中听到欧比-旺?肯诺比(亚历克?吉尼斯 Alec Guinness 饰)要他前往狄克星寻找绝地武士尤达师傅受训。银河帝国派出大军进攻哈斯星,韩?索罗(哈里森?福特饰)携猿人丘巴卡(彼得?梅林 Peter Mayhew 饰)带莉亚公主(卡里?费什尔 Carrie Fisher 饰)和机器人C-3PO乘千年隼飞船逃生,到达韩?索罗的旧识总督蓝多?卡瑞辛(比利?迪?威廉姆斯 Billy Dee Williams 饰)的贝斯平云城暂时歇脚,却发现蓝多早与维德勋爵达成协议,出卖韩?索罗设计陷阱诱惑卢克前来。学业未成的卢克不顾尤达的劝阻执意孤身付险,一场恶战在所难免。
  本片获第53界奥斯卡最佳声效奖及视觉效果特殊贡献奖,并获最佳艺术指导-布景及最佳原创电影音乐两项提名。

◎获奖情况

  第53届奥斯卡金像奖(1981)
  最佳音响 格雷格·兰达克 / 彼得·萨顿 / 比尔·瓦尼 / 史蒂夫·马斯洛
  最佳艺术指导(提名) 诺曼·雷诺兹 / 阿兰·汤姆金斯 / 莱斯利·迪利 / 迈克尔·福特 / 哈利·兰格
  最佳原创配乐(提名) 约翰·威廉姆斯
  特别成就奖 布鲁斯·尼科尔森 / 丹尼斯·穆伦 / 布赖恩·约翰逊 / 理查德·艾德兰德
Video
ID : 1
Format : HEVC
Format/Info : High Efficiency Video Coding
Format profile : Main [email protected]@Main
Codec ID : V_MPEGH/ISO/HEVC
Duration : 2 h 7 min
Bit rate : 18.7 Mb/s
Width : 3 840 pixels
Height : 1 608 pixels
Display aspect ratio : 2.40:1
Frame rate mode : Constant
Frame rate : 23.976 (24000/1001) FPS
Color space : YUV
Chroma subsampling : 4:2:0
Bit depth : 10 bits
Bits/(Pixel*Frame) : 0.126
Stream size : 16.6 GiB (77%)
Writing library : x265 3.2971180b100f8:[Windows][MSVC 1923][64 bit] 10bit
Encoding settings : cpuid=1111039 / frame-threads=4 / numa-pools=28,0 / wpp / no-pmode / no-pme / no-psnr / no-ssim / log-level=2 / input-csp=1 / input-res=3840x1608 / interlace=0 / total-frames=0 / level-idc=0 / high-tier=1 / uhd-bd=0 / ref=5 / no-allow-non-conformance / repeat-headers / annexb / no-aud / no-hrd / info / hash=0 / no-temporal-layers / open-gop / min-keyint=23 / keyint=250 / gop-lookahead=0 / bframes=8 / b-adapt=2 / b-pyramid / bframe-bias=0 / rc-lookahead=40 / lookahead-slices=0 / scenecut=40 / radl=0 / no-splice / no-intra-refresh / ctu=64 / min-cu-size=8 / no-rect / no-amp / max-tu-size=32 / tu-inter-depth=3 / tu-intra-depth=3 / limit-tu=0 / rdoq-level=1 / dynamic-rd=0.00 / no-ssim-rd / signhide / no-tskip / nr-intra=0 / nr-inter=0 / no-constrained-intra / strong-intra-smoothing / max-merge=5 / limit-refs=0 / no-limit-modes / me=3 / subme=4 / merange=57 / temporal-mvp / no-frame-dup / no-hme / weightp / weightb / no-analyze-src-pics / deblock=0:0 / no-sao / no-sao-non-deblock / rd=6 / selective-sao=0 / no-early-skip / rskip / no-fast-intra / no-tskip-fast / no-cu-lossless / b-intra / no-splitrd-skip / rdpenalty=0 / psy-rd=4.00 / psy-rdoq=8.00 / no-rd-refine / no-lossless / cbqpoffs=0 / crqpoffs=0 / rc=crf / crf=15.0 / qcomp=0.60 / qpstep=4 / stats-write=0 / stats-read=0 / ipratio=1.40 / pbratio=1.30 / aq-mode=2 / aq-strength=1.00 / cutree / zone-count=0 / no-strict-cbr / qg-size=32 / no-rc-grain / qpmax=69 / qpmin=0 / no-const-vbv / sar=0 / overscan=0 / videoformat=5 / range=0 / colorprim=9 / transfer=16 / colormatrix=9 / chromaloc=0 / display-window=0 / cll=0,0 / min-luma=0 / max-luma=1023 / log2-max-poc-lsb=8 / vui-timing-info / vui-hrd-info / slices=1 / no-opt-qp-pps / no-opt-ref-list-length-pps / no-multi-pass-opt-rps / scenecut-bias=0.05 / no-opt-cu-delta-qp / no-aq-motion / hdr / hdr-opt / no-dhdr10-opt / no-idr-recovery-sei / analysis-reuse-level=5 / scale-factor=0 / refine-intra=0 / refine-inter=0 / refine-mv=1 / refine-ctu-distortion=0 / no-limit-sao / ctu-info=0 / no-lowpass-dct / refine-analysis-type=0 / copy-pic=1 / max-ausize-factor=1.0 / no-dynamic-refine / no-single-sei / no-hevc-aq / no-svt / no-field / qp-adaptation-range=1.00
Default : Yes
Forced : No
Color range : Limited
Color primaries : BT.2020
Transfer characteristics : PQ
Matrix coefficients : BT.2020 non-constant

Audio #1
ID : 2
Format : DTS ES XXCH XLL
Format/Info : Digital Theater Systems
Commercial name : DTS-HD Master Audio
Codec ID : A_DTS
Duration : 2 h 7 min
Bit rate mode : Variable
Bit rate : 4 564 kb/s
Channel(s) : 7 channels
Channel layout : C L R Ls Rs LFE Cb
Sampling rate : 48.0 kHz
Frame rate : 93.750 FPS (512 SPF)
Bit depth : 24 bits
Compression mode : Lossless
Stream size : 4.06 GiB (19%)
Language : English
Default : Yes
Forced : No

Audio #2
ID : 3
Format : AC-3
Format/Info : Audio Coding 3
Commercial name : Dolby Digital
Codec ID : A_AC3
Duration : 2 h 7 min
Bit rate mode : Constant
Bit rate : 224 kb/s
Channel(s) : 2 channels
Channel layout : L R
Sampling rate : 48.0 kHz
Frame rate : 31.250 FPS (1536 SPF)
Bit depth : 16 bits
Compression mode : Lossy
Stream size : 204 MiB (1%)
Title : Commentary with George Lucas, Irvin Kershner, Carrie Fisher, Ben Burtt and Dennis Muren
Language : English
Service kind : Complete Main
Default : No
Forced : No

Audio #3
ID : 4
Format : AC-3
Format/Info : Audio Coding 3
Commercial name : Dolby Digital
Codec ID : A_AC3
Duration : 2 h 7 min
Bit rate mode : Constant
Bit rate : 224 kb/s
Channel(s) : 2 channels
Channel layout : L R
Sampling rate : 48.0 kHz
Frame rate : 31.250 FPS (1536 SPF)
Bit depth : 16 bits
Compression mode : Lossy
Stream size : 204 MiB (1%)
Title : Commentary from Archival Interviews with Cast and Crew
Language : English
Service kind : Complete Main
Default : No
Forced : No

Text #1
ID : 5
Format : PGS
Muxing mode : zlib
Codec ID : S_HDMV/PGS
Codec ID/Info : Picture based subtitle format used on BDs/HD-DVDs
Duration : 2 h 7 min
Bit rate : 39.0 kb/s
Count of elements : 2270
Stream size : 35.5 MiB (0%)
Language : English
Default : No
Forced : No

Text #2
ID : 6
Format : PGS
Muxing mode : zlib
Codec ID : S_HDMV/PGS
Codec ID/Info : Picture based subtitle format used on BDs/HD-DVDs
Duration : 2 h 7 min
Bit rate : 42.4 kb/s
Count of elements : 3106
Stream size : 38.6 MiB (0%)
Title : SDH
Language : English
Default : No
Forced : No

Text #3
ID : 7
Format : PGS
Muxing mode : zlib
Codec ID : S_HDMV/PGS
Codec ID/Info : Picture based subtitle format used on BDs/HD-DVDs
Duration : 2 h 6 min
Bit rate : 23.9 kb/s
Count of elements : 2292
Stream size : 21.7 MiB (0%)
Language : Arabic
Default : No
Forced : No

Text #4
ID : 8
Format : PGS
Muxing mode : zlib
Codec ID : S_HDMV/PGS
Codec ID/Info : Picture based subtitle format used on BDs/HD-DVDs
Duration : 2 h 6 min
Bit rate : 34.4 kb/s
Count of elements : 1902
Stream size : 31.2 MiB (0%)
Language : Bulgarian
Default : No
Forced : No

Text #5
ID : 9
Format : PGS
Muxing mode : zlib
Codec ID : S_HDMV/PGS
Codec ID/Info : Picture based subtitle format used on BDs/HD-DVDs
Duration : 2 h 6 min
Bit rate : 40.6 kb/s
Count of elements : 2486
Stream size : 36.9 MiB (0%)
Title : Mandarin Simplified
Language : Chinese
Default : No
Forced : No

Text #6
ID : 10
Format : PGS
Muxing mode : zlib
Codec ID : S_HDMV/PGS
Codec ID/Info : Picture based subtitle format used on BDs/HD-DVDs
Duration : 2 h 6 min
Bit rate : 32.3 kb/s
Count of elements : 2182
Stream size : 29.3 MiB (0%)
Language : Croatian
Default : No
Forced : No

Text #7
ID : 11
Format : PGS
Muxing mode : zlib
Codec ID : S_HDMV/PGS
Codec ID/Info : Picture based subtitle format used on BDs/HD-DVDs
Duration : 2 h 6 min
Bit rate : 32.1 kb/s
Count of elements : 2190
Stream size : 29.1 MiB (0%)
Language : Czech
Default : No
Forced : No

Text #8
ID : 12
Format : PGS
Muxing mode : zlib
Codec ID : S_HDMV/PGS
Codec ID/Info : Picture based subtitle format used on BDs/HD-DVDs
Duration : 2 h 7 min
Bit rate : 29.3 kb/s
Count of elements : 1678
Stream size : 26.7 MiB (0%)
Language : Danish
Default : No
Forced : No

Text #9
ID : 13
Format : PGS
Muxing mode : zlib
Codec ID : S_HDMV/PGS
Codec ID/Info : Picture based subtitle format used on BDs/HD-DVDs
Duration : 2 h 6 min
Bit rate : 27.7 kb/s
Count of elements : 2096
Stream size : 25.1 MiB (0%)
Language : Dutch
Default : No
Forced : No

Text #10
ID : 14
Format : PGS
Muxing mode : zlib
Codec ID : S_HDMV/PGS
Codec ID/Info : Picture based subtitle format used on BDs/HD-DVDs
Duration : 2 h 7 min
Bit rate : 27.8 kb/s
Count of elements : 1642
Stream size : 25.3 MiB (0%)
Language : Finnish
Default : No
Forced : No

Text #11
ID : 15
Format : PGS
Muxing mode : zlib
Codec ID : S_HDMV/PGS
Codec ID/Info : Picture based subtitle format used on BDs/HD-DVDs
Duration : 2 h 7 min
Bit rate : 34.7 kb/s
Count of elements : 2356
Stream size : 31.6 MiB (0%)
Language : French
Default : No
Forced : No

Text #12
ID : 16
Format : PGS
Muxing mode : zlib
Codec ID : S_HDMV/PGS
Codec ID/Info : Picture based subtitle format used on BDs/HD-DVDs
Duration : 2 h 7 min
Bit rate : 46.8 kb/s
Count of elements : 2270
Stream size : 42.6 MiB (0%)
Language : German
Default : No
Forced : No

Text #13
ID : 17
Format : PGS
Muxing mode : zlib
Codec ID : S_HDMV/PGS
Codec ID/Info : Picture based subtitle format used on BDs/HD-DVDs
Duration : 2 h 6 min
Bit rate : 40.6 kb/s
Count of elements : 2100
Stream size : 36.9 MiB (0%)
Language : Greek
Default : No
Forced : No

Text #14
ID : 18
Format : PGS
Muxing mode : zlib
Codec ID : S_HDMV/PGS
Codec ID/Info : Picture based subtitle format used on BDs/HD-DVDs
Duration : 2 h 6 min
Bit rate : 30.2 kb/s
Count of elements : 2316
Stream size : 27.4 MiB (0%)
Language : Hebrew
Default : No
Forced : No

Text #15
ID : 19
Format : PGS
Muxing mode : zlib
Codec ID : S_HDMV/PGS
Codec ID/Info : Picture based subtitle format used on BDs/HD-DVDs
Duration : 2 h 6 min
Bit rate : 34.0 kb/s
Count of elements : 2156
Stream size : 30.9 MiB (0%)
Language : Hungarian
Default : No
Forced : No

Text #16
ID : 20
Format : PGS
Muxing mode : zlib
Codec ID : S_HDMV/PGS
Codec ID/Info : Picture based subtitle format used on BDs/HD-DVDs
Duration : 2 h 6 min
Bit rate : 39.5 kb/s
Count of elements : 2200
Stream size : 35.9 MiB (0%)
Language : Icelandic
Default : No
Forced : No

Text #17
ID : 21
Format : PGS
Muxing mode : zlib
Codec ID : S_HDMV/PGS
Codec ID/Info : Picture based subtitle format used on BDs/HD-DVDs
Duration : 2 h 7 min
Bit rate : 38.1 kb/s
Count of elements : 2270
Stream size : 34.7 MiB (0%)
Language : Italian
Default : No
Forced : No

Text #18
ID : 22
Format : PGS
Muxing mode : zlib
Codec ID : S_HDMV/PGS
Codec ID/Info : Picture based subtitle format used on BDs/HD-DVDs
Duration : 2 h 7 min
Bit rate : 25.5 kb/s
Count of elements : 1678
Stream size : 23.3 MiB (0%)
Language : Norwegian
Default : No
Forced : No

Text #19
ID : 23
Format : PGS
Muxing mode : zlib
Codec ID : S_HDMV/PGS
Codec ID/Info : Picture based subtitle format used on BDs/HD-DVDs
Duration : 2 h 6 min
Bit rate : 34.4 kb/s
Count of elements : 2176
Stream size : 31.3 MiB (0%)
Language : Polish
Default : No
Forced : No

Text #20
ID : 24
Format : PGS
Muxing mode : zlib
Codec ID : S_HDMV/PGS
Codec ID/Info : Picture based subtitle format used on BDs/HD-DVDs
Duration : 2 h 7 min
Bit rate : 36.4 kb/s
Count of elements : 2422
Stream size : 33.1 MiB (0%)
Title : Brazilian
Language : Portuguese
Default : No
Forced : No

Text #21
ID : 25
Format : PGS
Muxing mode : zlib
Codec ID : S_HDMV/PGS
Codec ID/Info : Picture based subtitle format used on BDs/HD-DVDs
Duration : 2 h 6 min
Bit rate : 38.8 kb/s
Count of elements : 2388
Stream size : 35.2 MiB (0%)
Title : Portugal
Language : Portuguese
Default : No
Forced : No

Text #22
ID : 26
Format : PGS
Muxing mode : zlib
Codec ID : S_HDMV/PGS
Codec ID/Info : Picture based subtitle format used on BDs/HD-DVDs
Duration : 2 h 6 min
Bit rate : 43.5 kb/s
Count of elements : 2296
Stream size : 39.5 MiB (0%)
Language : Romanian
Default : No
Forced : No

Text #23
ID : 27
Format : PGS
Muxing mode : zlib
Codec ID : S_HDMV/PGS
Codec ID/Info : Picture based subtitle format used on BDs/HD-DVDs
Duration : 2 h 6 min
Bit rate : 46.0 kb/s
Count of elements : 2336
Stream size : 41.8 MiB (0%)
Language : Russian
Default : No
Forced : No

Text #24
ID : 28
Format : PGS
Muxing mode : zlib
Codec ID : S_HDMV/PGS
Codec ID/Info : Picture based subtitle format used on BDs/HD-DVDs
Duration : 2 h 6 min
Bit rate : 39.1 kb/s
Count of elements : 2294
Stream size : 35.5 MiB (0%)
Language : Slovenian
Default : No
Forced : No

Text #25
ID : 29
Format : PGS
Muxing mode : zlib
Codec ID : S_HDMV/PGS
Codec ID/Info : Picture based subtitle format used on BDs/HD-DVDs
Duration : 2 h 7 min
Bit rate : 35.0 kb/s
Count of elements : 2206
Stream size : 31.9 MiB (0%)
Title : Latin American
Language : Spanish
Default : No
Forced : No

Text #26
ID : 30
Format : PGS
Muxing mode : zlib
Codec ID : S_HDMV/PGS
Codec ID/Info : Picture based subtitle format used on BDs/HD-DVDs
Duration : 2 h 7 min
Bit rate : 38.7 kb/s
Count of elements : 2186
Stream size : 35.2 MiB (0%)
Title : Castilian
Language : Spanish
Default : No
Forced : No

Text #27
ID : 31
Format : PGS
Muxing mode : zlib
Codec ID : S_HDMV/PGS
Codec ID/Info : Picture based subtitle format used on BDs/HD-DVDs
Duration : 2 h 7 min
Bit rate : 29.6 kb/s
Count of elements : 1756
Stream size : 27.0 MiB (0%)
Language : Swedish
Default : No
Forced : No

Text #28
ID : 32
Format : PGS
Muxing mode : zlib
Codec ID : S_HDMV/PGS
Codec ID/Info : Picture based subtitle format used on BDs/HD-DVDs
Duration : 2 h 6 min
Bit rate : 41.4 kb/s
Count of elements : 2296
Stream size : 37.6 MiB (0%)
Language : Turkish
Default : No
Forced : No

Menu
00:00:00.000 : en:Opening Logos
00:00:21.104 : en:The Empire Strikes Back
00:01:54.865 : en:Ice Planet Hoth
00:04:15.839 : en:The Rebel Base
00:08:19.249 : en:Escape From the Wampa
00:10:15.949 : en:Closing the Doors
00:12:57.735 : en:Obi-Wan\'s Instructions
00:15:13.538 : en:Search Party
00:16:29.697 : en:Luke\'s Recovery
00:18:19.974 : en:Imperial Probe Droid
00:19:45.393 : en:The Imperial Fleet
00:21:22.698 : en:Preparing for Battle
00:23:57.728 : en:First Transport Away
00:25:49.423 : en:Battle in the Snow
00:29:29.351 : en:The Tide Turns
00:31:29.221 : en:Rebels in Retreat
00:33:37.682 : en:Escape Aboard the Falcon
00:35:55.153 : en:Leaving for Dagobah
00:36:51.251 : en:The Empire in Pursuit
00:38:33.561 : en:Asteroid Field
00:40:36.726 : en:Crash Landing on Dagobah
00:44:20.074 : en:Hunting the Falcon
00:46:08.391 : en:\"Found Someone, You Have\"
00:50:13.385 : en:Interrupted Kiss
00:52:16.633 : en:The Emperor\'s Message
00:54:20.257 : en:Yoda\'s Hut
00:57:40.290 : en:\"This is No Cave\"
01:00:57.946 : en:Jedi Training
01:03:42.777 : en:Failure at the Cave
01:05:46.109 : en:Bounty Hunters
01:08:12.171 : en:There is No Try
01:13:24.233 : en:Out With the Garbage
01:16:39.887 : en:Seeing the Future
01:18:24.116 : en:City in the Clouds
01:19:45.864 : en:Meeting Lando
01:22:55.929 : en:Leaving Dagobah
01:25:38.550 : en:Leia\'s Concerns
01:27:51.266 : en:Imperial Surprise
01:30:28.673 : en:The Deal Gets Worse
01:34:39.799 : en:Carbon Freeze
01:38:28.903 : en:Luke Enters the Trap
01:40:26.145 : en:Confronting the Dark Lord
01:41:46.100 : en:Lando\'s Second Surprise
01:43:51.434 : en:Lightsaber Duel
01:47:02.541 : en:Escape From Cloud City
01:49:21.472 : en:Vader\'s Revelation
01:53:41.690 : en:Falcon to the Rescue
01:56:14.843 : en:The Empire Closes In
01:59:46.596 : en:The Rebel Fleet
02:01:58.228 : en:End Credits





1 个附件 售价 大小 下载 时间

Star.Wars.Episode.V.The.Empire.Strikes.Back.1980.2160p.DSNP.WEBRip.x265.10bit.HDR.DTS-HD.MA.6.1-TrollUHD.torrent 0 金币 54.36K 2401 次 10天前

#1楼
发帖时间:2019-12-03 18:07:10   |   回复数:5
911degrees
隐世仙人♂
非常感谢,谢谢分享
10天前 #2楼
kola13
一派掌门
感谢分享
10天前 #3楼
liyouchai
隐世仙人♂
谢谢楼主分享资源
10天前 #4楼
jokingcheung
一代宗师
谢谢分享
10天前 #5楼
LAMKIMBO
武林高手
謝謝
9天前 #6楼
游客组