coor
武林高手

[更 早] [欧美] [动作] [BD-4K] 星球大战3:绝地归来/星球大战第六集:武士复仇 Star.Wars.Episode.VI.Return.of.the.Jedi.1983.2160p.DSNP.

-->

帖子完整标题:星球大战3:绝地归来/星球大战第六集:武士复仇 Star.Wars.Episode.VI.Return.of.the.Jedi.1983.2160p.DSNP.WEBRip.x265.10bit.HDR.DTS-HD.MA.6.1-TrollUHD 23.63GB




◎译  名 星球大战3:绝地归来 / 星球大战第六集:武士复仇 / 星际大战六部曲:绝地大反攻 / 杰迪归来 / 绝地大反击
◎片  名 Star Wars: Episode VI - Return of the Jedi
◎年  代 1983
◎产  地 美国
◎类  别 动作 / 科幻 / 冒险
◎语  言 英语
◎上映日期 1983-05-25(美国)
◎IMDb评分 8.3/10 from 858604 users
◎IMDb链接 http://www.imdb.com/title/tt0086190
◎豆瓣评分 8.3/10 from 58158 users
◎豆瓣链接 https://movie.douban.com/subject/1297151/
◎片  长 131分钟
◎导  演 Richard Marquand
◎编  剧 George Lucas / Lawrence Kasdan
◎主  演 Mark Hamill
      Harrison Ford
      Anthony Daniels
      Carrie Fisher
      Billy Dee Williams
      Peter Mayhew
      Ian McDiarmid
      Frank Oz
      Alec Guinness


◎标  签 科幻 | 星球大战 | 美国 | 经典 | 1983 | 动作 | 冒险 | 战争

◎简  介

  银河帝国再建威力更大的新“死星”,试图彻底消灭抵抗力量。卢克?天行者(马克?哈米尔 Mark Hamill 饰)派机器人R2-D2和C-3PO前往塔图因星贾霸处协商交换被冷冻的韩?索罗(哈里森?福特饰)未果;后在莉亚公主(卡里?费什尔 Carrie Fisher 饰),猿人丘巴卡(彼得?梅林 Peter Mayhew 饰)和蓝多?卡瑞辛(比利?迪?威廉姆斯 Billy Dee Williams 饰)的帮助下终于营救成功。在尤达师傅处,卢克发现了更多关于自己身世的秘密,也终于决定迎接成为一个绝地武士的终极挑战。卢克回到抵抗组织参与攻打“死星”行动,与韩?索罗,莉亚公主,丘巴卡,机器人R2-D2和C-3PO共同前往森林密布的恩多星破坏“死星”防护罩的能源站,与此同时蓝多?卡瑞辛驾驶千年隼飞船带领各部施展航空打击。没曾想卢克一行人刚踏上恩多星,就遭遇当地部落伊沃克人,莉亚公主也不知所踪……
本片获第56界奥斯卡视觉效果特殊贡献奖,并获最佳艺术指导-布景,最佳声音剪辑,最佳原创电影音乐及最佳音效四项提名。

◎获奖情况

  第56届奥斯卡金像奖(1984)
  最佳音效剪辑(提名) 本·贝尔特
  最佳音响(提名) 兰迪·汤姆 / 加里·萨默斯 / Tony Dawe / 本·贝尔特
  最佳艺术指导(提名) 诺曼·雷诺兹 / 迈克尔·福特 / Fred Hole / James L. Schoppe
  最佳原创配乐(提名) 约翰·威廉姆斯
  特别成就奖 肯·拉斯顿 / 丹尼斯·穆伦 / 菲尔 蒂贝特 / 理查德·艾德兰德



Video
ID : 1
Format : HEVC
Format/Info : High Efficiency Video Coding
Format profile : Main [email protected]@Main
Codec ID : V_MPEGH/ISO/HEVC
Duration : 2 h 14 min
Bit rate : 19.8 Mb/s
Width : 3 840 pixels
Height : 1 608 pixels
Display aspect ratio : 2.40:1
Frame rate mode : Constant
Frame rate : 23.976 (24000/1001) FPS
Color space : YUV
Chroma subsampling : 4:2:0
Bit depth : 10 bits
Bits/(Pixel*Frame) : 0.134
Stream size : 18.6 GiB (79%)
Writing library : x265 3.2971180b100f8:[Windows][MSVC 1923][64 bit] 10bit
Encoding settings : cpuid=1111039 / frame-threads=4 / numa-pools=0,28 / wpp / no-pmode / no-pme / no-psnr / no-ssim / log-level=2 / input-csp=1 / input-res=3840x1608 / interlace=0 / total-frames=0 / level-idc=0 / high-tier=1 / uhd-bd=0 / ref=5 / no-allow-non-conformance / repeat-headers / annexb / no-aud / no-hrd / info / hash=0 / no-temporal-layers / open-gop / min-keyint=23 / keyint=250 / gop-lookahead=0 / bframes=8 / b-adapt=2 / b-pyramid / bframe-bias=0 / rc-lookahead=40 / lookahead-slices=0 / scenecut=40 / radl=0 / no-splice / no-intra-refresh / ctu=64 / min-cu-size=8 / no-rect / no-amp / max-tu-size=32 / tu-inter-depth=3 / tu-intra-depth=3 / limit-tu=0 / rdoq-level=1 / dynamic-rd=0.00 / no-ssim-rd / signhide / no-tskip / nr-intra=0 / nr-inter=0 / no-constrained-intra / strong-intra-smoothing / max-merge=5 / limit-refs=0 / no-limit-modes / me=3 / subme=4 / merange=57 / temporal-mvp / no-frame-dup / no-hme / weightp / weightb / no-analyze-src-pics / deblock=0:0 / no-sao / no-sao-non-deblock / rd=6 / selective-sao=0 / no-early-skip / rskip / no-fast-intra / no-tskip-fast / no-cu-lossless / b-intra / no-splitrd-skip / rdpenalty=0 / psy-rd=4.00 / psy-rdoq=8.00 / no-rd-refine / no-lossless / cbqpoffs=0 / crqpoffs=0 / rc=crf / crf=16.0 / qcomp=0.60 / qpstep=4 / stats-write=0 / stats-read=0 / ipratio=1.40 / pbratio=1.30 / aq-mode=2 / aq-strength=1.00 / cutree / zone-count=0 / no-strict-cbr / qg-size=32 / no-rc-grain / qpmax=69 / qpmin=0 / no-const-vbv / sar=0 / overscan=0 / videoformat=5 / range=0 / colorprim=9 / transfer=16 / colormatrix=9 / chromaloc=0 / display-window=0 / cll=0,0 / min-luma=0 / max-luma=1023 / log2-max-poc-lsb=8 / vui-timing-info / vui-hrd-info / slices=1 / no-opt-qp-pps / no-opt-ref-list-length-pps / no-multi-pass-opt-rps / scenecut-bias=0.05 / no-opt-cu-delta-qp / no-aq-motion / hdr / hdr-opt / no-dhdr10-opt / no-idr-recovery-sei / analysis-reuse-level=5 / scale-factor=0 / refine-intra=0 / refine-inter=0 / refine-mv=1 / refine-ctu-distortion=0 / no-limit-sao / ctu-info=0 / no-lowpass-dct / refine-analysis-type=0 / copy-pic=1 / max-ausize-factor=1.0 / no-dynamic-refine / no-single-sei / no-hevc-aq / no-svt / no-field / qp-adaptation-range=1.00
Default : Yes
Forced : No
Color range : Limited
Color primaries : BT.2020
Transfer characteristics : PQ
Matrix coefficients : BT.2020 non-constant

Audio #1
ID : 2
Format : DTS ES XXCH XLL
Format/Info : Digital Theater Systems
Commercial name : DTS-HD Master Audio
Codec ID : A_DTS
Duration : 2 h 14 min
Bit rate mode : Variable
Bit rate : 4 553 kb/s
Channel(s) : 7 channels
Channel layout : C L R Ls Rs LFE Cb
Sampling rate : 48.0 kHz
Frame rate : 93.750 FPS (512 SPF)
Bit depth : 24 bits
Compression mode : Lossless
Stream size : 4.29 GiB (18%)
Title : DTS-HD MA 6.1
Language : English
Default : Yes
Forced : No

Audio #2
ID : 3
Format : AC-3
Format/Info : Audio Coding 3
Commercial name : Dolby Digital
Codec ID : A_AC3
Duration : 2 h 14 min
Bit rate mode : Constant
Bit rate : 224 kb/s
Channel(s) : 2 channels
Channel layout : L R
Sampling rate : 48.0 kHz
Frame rate : 31.250 FPS (1536 SPF)
Bit depth : 16 bits
Compression mode : Lossy
Stream size : 216 MiB (1%)
Title : George Lucas Commentary
Language : English
Service kind : Complete Main
Default : No
Forced : No

Audio #3
ID : 4
Format : AC-3
Format/Info : Audio Coding 3
Commercial name : Dolby Digital
Codec ID : A_AC3
Duration : 2 h 14 min
Bit rate mode : Constant
Bit rate : 224 kb/s
Channel(s) : 2 channels
Channel layout : L R
Sampling rate : 48.0 kHz
Frame rate : 31.250 FPS (1536 SPF)
Bit depth : 16 bits
Compression mode : Lossy
Stream size : 216 MiB (1%)
Title : Cast and Crew Commentary
Language : English
Service kind : Complete Main
Default : No
Forced : No

Text #1
ID : 5
Format : PGS
Muxing mode : zlib
Codec ID : S_HDMV/PGS
Codec ID/Info : Picture based subtitle format used on BDs/HD-DVDs
Duration : 2 h 14 min
Bit rate : 29.8 kb/s
Count of elements : 2016
Stream size : 28.7 MiB (0%)
Language : English
Default : No
Forced : No

Text #2
ID : 6
Format : PGS
Muxing mode : zlib
Codec ID : S_HDMV/PGS
Codec ID/Info : Picture based subtitle format used on BDs/HD-DVDs
Duration : 2 h 14 min
Bit rate : 36.5 kb/s
Count of elements : 3034
Stream size : 35.2 MiB (0%)
Title : SDH
Language : English
Default : No
Forced : No

Text #3
ID : 7
Format : PGS
Muxing mode : zlib
Codec ID : S_HDMV/PGS
Codec ID/Info : Picture based subtitle format used on BDs/HD-DVDs
Duration : 2 h 14 min
Bit rate : 363 b/s
Count of elements : 56
Stream size : 359 KiB (0%)
Title : non-English parts only
Language : English
Default : No
Forced : No

Text #4
ID : 8
Format : PGS
Muxing mode : zlib
Codec ID : S_HDMV/PGS
Codec ID/Info : Picture based subtitle format used on BDs/HD-DVDs
Duration : 2 h 14 min
Bit rate : 29.0 kb/s
Count of elements : 1762
Stream size : 27.9 MiB (0%)
Language : Bulgarian
Default : No
Forced : No

Text #5
ID : 9
Format : PGS
Muxing mode : zlib
Codec ID : S_HDMV/PGS
Codec ID/Info : Picture based subtitle format used on BDs/HD-DVDs
Duration : 2 h 14 min
Bit rate : 29.8 kb/s
Count of elements : 2110
Stream size : 28.6 MiB (0%)
Title : Cantonese
Language : Chinese
Default : No
Forced : No

Text #6
ID : 10
Format : PGS
Muxing mode : zlib
Codec ID : S_HDMV/PGS
Codec ID/Info : Picture based subtitle format used on BDs/HD-DVDs
Duration : 2 h 14 min
Bit rate : 28.6 kb/s
Count of elements : 2250
Stream size : 27.5 MiB (0%)
Title : Mandarin Traditional
Language : Chinese
Default : No
Forced : No

Text #7
ID : 11
Format : PGS
Muxing mode : zlib
Codec ID : S_HDMV/PGS
Codec ID/Info : Picture based subtitle format used on BDs/HD-DVDs
Duration : 2 h 14 min
Bit rate : 26.9 kb/s
Count of elements : 1926
Stream size : 25.9 MiB (0%)
Language : Croatian
Default : No
Forced : No

Text #8
ID : 12
Format : PGS
Muxing mode : zlib
Codec ID : S_HDMV/PGS
Codec ID/Info : Picture based subtitle format used on BDs/HD-DVDs
Duration : 2 h 14 min
Bit rate : 26.7 kb/s
Count of elements : 1938
Stream size : 25.6 MiB (0%)
Language : Czech
Default : No
Forced : No

Text #9
ID : 13
Format : PGS
Muxing mode : zlib
Codec ID : S_HDMV/PGS
Codec ID/Info : Picture based subtitle format used on BDs/HD-DVDs
Duration : 2 h 14 min
Bit rate : 28.2 kb/s
Count of elements : 1904
Stream size : 27.2 MiB (0%)
Language : Danish
Default : No
Forced : No

Text #10
ID : 14
Format : PGS
Muxing mode : zlib
Codec ID : S_HDMV/PGS
Codec ID/Info : Picture based subtitle format used on BDs/HD-DVDs
Duration : 2 h 14 min
Bit rate : 26.4 kb/s
Count of elements : 1862
Stream size : 25.4 MiB (0%)
Language : Dutch
Default : No
Forced : No

Text #11
ID : 15
Format : PGS
Muxing mode : zlib
Codec ID : S_HDMV/PGS
Codec ID/Info : Picture based subtitle format used on BDs/HD-DVDs
Duration : 2 h 14 min
Bit rate : 23.5 kb/s
Count of elements : 1630
Stream size : 22.7 MiB (0%)
Language : Finnish
Default : No
Forced : No

Text #12
ID : 16
Format : PGS
Muxing mode : zlib
Codec ID : S_HDMV/PGS
Codec ID/Info : Picture based subtitle format used on BDs/HD-DVDs
Duration : 2 h 14 min
Bit rate : 27.3 kb/s
Count of elements : 2014
Stream size : 26.3 MiB (0%)
Language : French
Default : No
Forced : No

Text #13
ID : 17
Format : PGS
Muxing mode : zlib
Codec ID : S_HDMV/PGS
Codec ID/Info : Picture based subtitle format used on BDs/HD-DVDs
Duration : 2 h 14 min
Bit rate : 29.8 kb/s
Count of elements : 2018
Stream size : 28.7 MiB (0%)
Language : Italian
Default : No
Forced : No

Text #14
ID : 18
Format : PGS
Muxing mode : zlib
Codec ID : S_HDMV/PGS
Codec ID/Info : Picture based subtitle format used on BDs/HD-DVDs
Duration : 2 h 3 min
Bit rate : 14.4 kb/s
Count of elements : 1940
Stream size : 12.7 MiB (0%)
Language : Japanese
Default : No
Forced : No

Text #15
ID : 19
Format : PGS
Muxing mode : zlib
Codec ID : S_HDMV/PGS
Codec ID/Info : Picture based subtitle format used on BDs/HD-DVDs
Duration : 2 h 14 min
Bit rate : 26.5 kb/s
Count of elements : 2110
Stream size : 25.4 MiB (0%)
Language : Korean
Default : No
Forced : No

Text #16
ID : 20
Format : PGS
Muxing mode : zlib
Codec ID : S_HDMV/PGS
Codec ID/Info : Picture based subtitle format used on BDs/HD-DVDs
Duration : 2 h 14 min
Bit rate : 23.9 kb/s
Count of elements : 1908
Stream size : 23.0 MiB (0%)
Language : Norwegian
Default : No
Forced : No

Text #17
ID : 21
Format : PGS
Muxing mode : zlib
Codec ID : S_HDMV/PGS
Codec ID/Info : Picture based subtitle format used on BDs/HD-DVDs
Duration : 2 h 14 min
Bit rate : 28.8 kb/s
Count of elements : 2048
Stream size : 27.8 MiB (0%)
Title : Brazilian
Language : Portuguese
Default : No
Forced : No

Text #18
ID : 22
Format : PGS
Muxing mode : zlib
Codec ID : S_HDMV/PGS
Codec ID/Info : Picture based subtitle format used on BDs/HD-DVDs
Duration : 2 h 14 min
Bit rate : 31.3 kb/s
Count of elements : 2038
Stream size : 30.1 MiB (0%)
Language : Romanian
Default : No
Forced : No

Text #19
ID : 23
Format : PGS
Muxing mode : zlib
Codec ID : S_HDMV/PGS
Codec ID/Info : Picture based subtitle format used on BDs/HD-DVDs
Duration : 2 h 14 min
Bit rate : 35.0 kb/s
Count of elements : 2048
Stream size : 33.7 MiB (0%)
Language : Russian
Default : No
Forced : No

Text #20
ID : 24
Format : PGS
Muxing mode : zlib
Codec ID : S_HDMV/PGS
Codec ID/Info : Picture based subtitle format used on BDs/HD-DVDs
Duration : 2 h 14 min
Bit rate : 30.7 kb/s
Count of elements : 2036
Stream size : 29.5 MiB (0%)
Language : Slovenian
Default : No
Forced : No

Text #21
ID : 25
Format : PGS
Muxing mode : zlib
Codec ID : S_HDMV/PGS
Codec ID/Info : Picture based subtitle format used on BDs/HD-DVDs
Duration : 2 h 14 min
Bit rate : 28.0 kb/s
Count of elements : 1924
Stream size : 27.0 MiB (0%)
Title : Latin American
Language : Spanish
Default : No
Forced : No

Text #22
ID : 26
Format : PGS
Muxing mode : zlib
Codec ID : S_HDMV/PGS
Codec ID/Info : Picture based subtitle format used on BDs/HD-DVDs
Duration : 2 h 14 min
Bit rate : 26.1 kb/s
Count of elements : 1892
Stream size : 25.2 MiB (0%)
Language : Swedish
Default : No
Forced : No

Text #23
ID : 27
Format : PGS
Muxing mode : zlib
Codec ID : S_HDMV/PGS
Codec ID/Info : Picture based subtitle format used on BDs/HD-DVDs
Duration : 2 h 14 min
Bit rate : 25.6 kb/s
Count of elements : 2254
Stream size : 24.6 MiB (0%)
Language : Thai
Default : No
Forced : No

Text #24
ID : 28
Format : PGS
Muxing mode : zlib
Codec ID : S_HDMV/PGS
Codec ID/Info : Picture based subtitle format used on BDs/HD-DVDs
Duration : 2 h 14 min
Bit rate : 32.4 kb/s
Count of elements : 2040
Stream size : 31.2 MiB (0%)
Language : Turkish
Default : No
Forced : No

Menu
00:00:00.000 : en:01. Opening Logos
00:00:21.188 : en:02. Return of the Jedi
00:01:55.115 : en:03. Vader\'s Unexpected Visit
00:04:58.465 : en:04. Arrival at Jabba\'s Palace
00:08:10.907 : en:05. A Message and a Gift
00:12:21.908 : en:06. The Max Rebo Band
00:14:22.028 : en:07. The Price for Chewbacca
00:17:36.013 : en:08. Free From the Carbonite
00:22:10.037 : en:09. Enter the Jedi
00:25:08.340 : en:10. \"Oh No! The Rancor!\"
00:29:37.359 : en:11. On the Sail Barge
00:31:29.012 : en:12. The Sarlacc Pit
00:37:44.471 : en:13. The Emperor Arrives
00:39:32.245 : en:14. Yoda\'s Twilight
00:45:17.423 : en:15. A Certain Point of View
00:48:23.400 : en:16. Rebel Briefing
00:51:36.010 : en:17. Lending the Falcon
00:53:32.668 : en:18. The Emperor\'s Instructions
00:54:25.095 : en:19. Flying Casual
00:56:55.245 : en:20. Arrival on Endor
00:58:43.812 : en:21. Speeder Bike Chase
01:02:41.716 : en:22. Leia Meets Wicket
01:06:19.267 : en:23. Vader\'s Report
01:07:47.480 : en:24. An Ewok Trap
01:12:01.108 : en:25. The Golden God
01:15:52.673 : en:26. Campfire Stories
01:18:14.815 : en:27. Brother and Sister
01:22:30.404 : en:28. Luke Surrenders
01:26:06.870 : en:29. Rebel Recon
01:26:52.082 : en:30. The Alliance Fleet
01:27:50.891 : en:31. Back Door
01:30:04.524 : en:32. Luke and the Emperor
01:33:19.135 : en:33. \"It\'s a Trap!\"
01:36:41.421 : en:34. Ewok Attack
01:40:25.186 : en:35. Fully Operational
01:42:23.179 : en:36. The Battle Rages
01:44:27.803 : en:37. The Dark Side Beckons
01:45:26.946 : en:38. The Ewoks Turn the Tide
01:48:42.433 : en:39. Father vs. Son
01:50:40.634 : en:40. Taking the Bunker
01:51:37.107 : en:41. A Jedi\'s Fury
01:54:37.120 : en:42. The Shield is Down
01:55:07.859 : en:43. Force Lightning
01:55:57.492 : en:44. Vader\'s Redemption
01:57:40.178 : en:45. Into the Death Star
01:59:34.167 : en:46. Anakin Unmasked
02:01:58.853 : en:47. Death Star Destroyed
02:04:50.566 : en:48. Funeral Pyre
02:05:27.437 : en:49. Celebration
02:07:56.043 : en:50. End Credits





1 个附件 售价 大小 下载 时间

Star.Wars.Episode.VI.Return.of.the.Jedi.1983.2160p.DSNP.WEBRip.x265.10bit.HDR.DTS-HD.MA.6.1-TrollUHD.torrent 0 金币 59.70K 1820 次 10天前

#1楼
发帖时间:2019-12-03 18:04:50   |   回复数:5
911degrees
隐世仙人♂
非常感谢,谢谢分享
10天前 #2楼
kola13
一派掌门
感谢分享
10天前 #3楼
liyouchai
隐世仙人♂
谢谢楼主分享资源
10天前 #4楼
jokingcheung
一代宗师
谢谢分享
10天前 #5楼
LAMKIMBO
武林高手
謝謝分享
9天前 #6楼
游客组