coor
武林高手

[2019] [欧美] [剧情] [WEB-1080P] 放逐 Out.Of.Liberty.2019.1080p.WEB-DL.DD5.1.H264-FGT 3.87GB

-->

帖子完整标题:放逐 Out.Of.Liberty.2019.1080p.WEB-DL.DD5.1.H264-FGT 3.87GB




◎译  名 放逐
◎片  名 Out of Liberty
◎年  代 2019
◎产  地 美国
◎类  别 剧情 / 西部
◎语  言 英语
◎上映日期 2019-09-13(美国)
◎IMDb评分 8.1/10 from 92 users
◎IMDb链接 https://www.imdb.com/title/tt9844368
◎豆瓣评分 0/10 from 0 users
◎豆瓣链接 https://movie.douban.com/subject/34800883/
◎片  长 111分钟
◎导  演 Garrett Batty
◎编  剧 Stephen Dethloff / Garrett Batty / S. McKay Stevens
◎主  演 柯宾·艾瑞特 Corbin Allred
      Adam Johnson
      拉里·巴格比 Larry Bagby


◎简  介

  Winter 1839. LIBERTY, MISSOURI. Local jailer, Samuel Tillery (Jasen Wade) is tasked with watching Missouri's most wanted men as they await their upcoming hearing. Caught between the local Missourians' increased drive to remove the prisoners, and the prisoners' desperate efforts to survive, Tillery is pushed beyond what any lawman can endure. Based on actual recorded accounts, OUT OF LIBERTY is an intense, evocative western, with an outcome you have to see to believe.
Video
ID : 1
Format : AVC
Format/Info : Advanced Video Codec
Format profile : [email protected]
Format settings : CABAC / 5 Ref Frames
Format settings, CABAC : Yes
Format settings, Reference frames : 5 frames
Codec ID : V_MPEG4/ISO/AVC
Duration : 1 h 52 min
Bit rate : 4 549 kb/s
Width : 1 920 pixels
Height : 800 pixels
Display aspect ratio : 2.40:1
Frame rate mode : Constant
Frame rate : 23.976 (24000/1001) FPS
Color space : YUV
Chroma subsampling : 4:2:0
Bit depth : 8 bits
Scan type : Progressive
Bits/(Pixel*Frame) : 0.124
Stream size : 3.57 GiB (92%)
Title : Out.Of.Liberty.2019.1080p.WEB-DL.DD5.1.H264-FGT
Language : English
Default : Yes
Forced : No
Color range : Limited
Color primaries : BT.709
Transfer characteristics : BT.709
Matrix coefficients : BT.709

Audio
ID : 2
Format : AC-3
Format/Info : Audio Coding 3
Commercial name : Dolby Digital
Codec ID : A_AC3
Duration : 1 h 52 min
Bit rate mode : Constant
Bit rate : 384 kb/s
Channel(s) : 6 channels
Channel layout : L R C LFE Ls Rs
Sampling rate : 48.0 kHz
Frame rate : 31.250 FPS (1536 SPF)
Bit depth : 16 bits
Compression mode : Lossy
Stream size : 309 MiB (8%)
Title : Out.Of.Liberty.2019.1080p.WEB-DL.DD5.1.H264-FGT
Language : English
Service kind : Complete Main
Default : Yes
Forced : No

Text
ID : 3
Format : UTF-8
Codec ID : S_TEXT/UTF8
Codec ID/Info : UTF-8 Plain Text
Duration : 1 h 48 min
Bit rate : 73 b/s
Count of elements : 1557
Stream size : 58.5 KiB (0%)
Language : English
Default : Yes
Forced : No

Menu
00:00:00.000 : en:Chapter 1
00:09:51.591 : en:Chapter 2
00:18:45.124 : en:Chapter 3
00:31:14.873 : en:Chapter 4
00:40:11.409 : en:Chapter 5
00:52:26.142 : en:Chapter 6
01:01:43.698 : en:Chapter 7
01:13:20.393 : en:Chapter 8
01:20:59.851 : en:Chapter 9
01:32:52.562 : en:Chapter 10
01:42:30.139 : en:Chapter 11
01:49:20.548 : en:Chapter 12





1 个附件 售价 大小 下载 时间

Out.Of.Liberty.2019.1080p.WEB-DL.DD5.1.H264-FGT.torrent 0 金币 39.26K 700 次 10天前

#1楼
发帖时间:2019-12-03 17:10:11   |   回复数:3
liyouchai
隐世仙人♂
谢谢楼主分享资源
10天前 #2楼
tanchoohoon
武林盟主
感谢楼主的无私分享
10天前 #3楼
911degrees
隐世仙人♂
非常感谢,谢谢分享
10天前 #4楼
游客组