awkn
武林高手

[更早] [欧美] [剧情] [纯净版] [度盘/BT][天生杀人狂 / 闪灵杀手][BD-MP4/ 2.55GB][英语双字][1080p][H265][10bit][AAC 5.1]

-->

导演奥利佛·斯通
编剧戴维·韦罗兹 / 理查德·卢特考斯基 / 奥利佛·斯通 / 昆汀·塔伦蒂诺
主演伍迪·哈里森 / 朱丽叶特·刘易斯 / 汤姆·塞兹摩尔 / 汤米·李·琼斯 / 小罗伯特·唐尼
类型: 剧情 / 动作 / 爱情 / 惊悚 / 犯罪
制片国家/地区: 美国
语言: 英语 / 纳瓦霍语 / 日语
上映日期: 1994-08-26(美国)
片长: 118分钟 / 122分钟(导演剪辑版)
又名: 闪灵杀手 / 天生杀手
IMDb链接: tt0110632

IMDB评分:7.3

豆瓣评分:8.0


天生杀人狂的剧情简介 · · · · · ·

  米基(伍迪·哈里森 Woody Harrelson 饰)和梅乐丽(朱丽叶特·刘易斯 Juliette Lewis饰)同样有着残缺的家庭,深种在他们内心暴力的种子在渐渐萌芽成长。梅乐丽从小就备受父亲虐待,她决定和只有一面之缘的米基一同出走,出走前把父母都杀死。米基要梅乐丽 从今起开始新生活,他们举行婚礼后,便开始了一边逃亡一边杀人的疯狂旅程。 
  在途中,死于二人手下的人无数。道德和法律已经完全被他们的观念清空。他们疯狂的杀人,疯狂的相爱,手上染满各种人的鲜血。这个离奇的事件,被电视当作肥皂剧来娱乐大众。他们成为青少年崇拜的偶像的同时,也成为了阶下囚。然而,监狱对于他们来说,不过是一个新的杀人场所。他们点燃了监狱里犯人们的凶暴欲念,一场登峰造极的混战轰烈上演。



General

Complete name               : C:\Users\Administrator\Desktop\Natural.Born.Killers.1994.DC.BD1080p.x265.10bit.HEVC.ACC.5.1.英语双字-AWKN.mp4

Format                      : MPEG-4

Format profile              : Base Media

Codec ID                    : iso4 (iso4/hvc1/iso6)

File size                   : 2.55 GiB

Duration                    : 2 h 2 min

Overall bit rate mode       : Variable

Overall bit rate            : 2 992 kb/s

Encoded date                : UTC 2019-12-06 12:08:01

Tagged date                 : UTC 2019-12-06 12:08:01


Video

ID                          : 1

Format                      : HEVC

Format/Info                 : High Efficiency Video Coding

Format profile              : Main [email protected]@Main

Codec ID                    : hvc1

Codec ID/Info               : High Efficiency Video Coding

Duration                    : 2 h 2 min

Bit rate                    : 2 799 kb/s

Maximum bit rate            : 12.5 Mb/s

Width                       : 1 920 pixels

Height                      : 1 080 pixels

Display aspect ratio        : 16:9

Frame rate mode             : Constant

Frame rate                  : 23.976 (24000/1001) FPS

Color space                 : YUV

Chroma subsampling          : 4:2:0

Bit depth                   : 10 bits

Bits/(Pixel*Frame)          : 0.056

Stream size                 : 2.39 GiB (94%)

Writing library             : x265 2.9169e76b6bbcc:[Windows][GCC 8.2.0][64 bit] 10bit

Encoding settings           : cpuid=1049583 / frame-threads=4 / numa-pools=20 / wpp / no-pmode / no-pme / no-psnr / no-ssim / log-level=2 / input-csp=1 / input-res=1920x1080 / interlace=0 / total-frames=175584 / level-idc=0 / high-tier=1 / uhd-bd=0 / ref=4 / no-allow-non-conformance / no-repeat-headers / annexb / no-aud / no-hrd / info / hash=0 / no-temporal-layers / open-gop / min-keyint=23 / keyint=250 / gop-lookahead=0 / bframes=4 / b-adapt=2 / b-pyramid / bframe-bias=0 / rc-lookahead=25 / lookahead-slices=4 / scenecut=40 / radl=0 / no-intra-refresh / ctu=64 / min-cu-size=8 / rect / no-amp / max-tu-size=32 / tu-inter-depth=1 / tu-intra-depth=1 / limit-tu=0 / rdoq-level=2 / dynamic-rd=0.00 / no-ssim-rd / signhide / no-tskip / nr-intra=0 / nr-inter=0 / no-constrained-intra / strong-intra-smoothing / max-merge=3 / limit-refs=3 / limit-modes / me=3 / subme=3 / merange=57 / temporal-mvp / weightp / no-weightb / no-analyze-src-pics / deblock=0:0 / sao / no-sao-non-deblock / rd=4 / no-early-skip / rskip / no-fast-intra / no-tskip-fast / no-cu-lossless / no-b-intra / no-splitrd-skip / rdpenalty=0 / psy-rd=2.00 / psy-rdoq=1.00 / no-rd-refine / no-lossless / cbqpoffs=0 / crqpoffs=0 / rc=abr / bitrate=2800 / qcomp=0.60 / qpstep=4 / stats-write=0 / stats-read=2 / cplxblur=20.0 / qblur=0.5 / ipratio=1.40 / pbratio=1.30 / aq-mode=1 / aq-strength=1.00 / cutree / zone-count=0 / no-strict-cbr / qg-size=32 / no-rc-grain / qpmax=69 / qpmin=0 / no-const-vbv / sar=1 / overscan=0 / videoformat=5 / range=0 / colorprim=2 / transfer=2 / colormatrix=2 / chromaloc=0 / display-window=0 / max-cll=0,0 / min-luma=0 / max-luma=1023 / log2-max-poc-lsb=8 / vui-timing-info / vui-hrd-info / slices=1 / no-opt-qp-pps / no-opt-ref-list-length-pps / no-multi-pass-opt-rps / scenecut-bias=0.05 / no-opt-cu-delta-qp / no-aq-motion / no-hdr / no-hdr-opt / no-dhdr10-opt / no-idr-recovery-sei / analysis-reuse-level=5 / scale-factor=0 / refine-intra=0 / refine-inter=0 / refine-mv=0 / no-limit-sao / ctu-info=0 / no-lowpass-dct / refine-mv-type=0 / copy-pic=1 / max-ausize-factor=1.0 / no-dynamic-refine / no-single-sei

Encoded date                : UTC 2019-12-06 12:08:01

Tagged date                 : UTC 2019-12-06 12:08:45

Codec configuration box     : hvcC


Audio

ID                          : 2

Format                      : AAC LC

Format/Info                 : Advanced Audio Codec Low Complexity

Codec ID                    : mp4a-40-2

Duration                    : 2 h 2 min

Bit rate mode               : Variable

Bit rate                    : 192 kb/s

Maximum bit rate            : 292 kb/s

Channel(s)                  : 6 channels

Channel layout              : C L R Ls Rs LFE

Sampling rate               : 48.0 kHz

Frame rate                  : 46.875 FPS (1024 SPF)

Compression mode            : Lossy

Stream size                 : 165 MiB (6%)

Language                    : English

Encoded date                : UTC 2019-12-06 11:52:01

Tagged date                 : UTC 2019-12-06 12:08:45



https://pan.baidu.com/s/16ID6rf_HS1Rpsih8cls1Ug 提取码:zynz



1 个附件 售价 大小 下载 时间

天生杀人狂.Natural.Born.Killers.1994.DC.BD1080p.x265.10bit.HEVC.ACC.5.1.英语双字-AWKN.torrent 0 金币 13.49K 3486 次 1月前

#1楼
发帖时间:2019-12-06 21:49:53   |   回复数:9
cliff168
一派掌门
感谢分享好东西
1月前 #2楼
about456
一代宗师
多谢搂主分享!
1月前 #3楼
jokingcheung
一代宗师
谢谢分享
1月前 #4楼
金枪西门庆
一派掌门
感谢楼主分享支持。
1月前 #5楼
911degrees
隐世仙人♂
非常感谢,谢谢分享
1月前 #6楼
ak147
一代宗师
感谢大大分享
1月前 #7楼
继续支持
一代宗师
经典影片,谢谢楼主无私分享。
1月前 #8楼
ALLEN820213
隐世仙人♂
感谢楼主分享!!!
1月前 #9楼
blj2007
一派掌门
感谢分享,辛苦啦
1月前 #10楼
游客组