awkn
武林高手

[更早] [欧美] [剧情] [纯净版] [度盘/BT][歌剧魅影][BD-MP4/ 2.98GB][英语双字][1080p][H265][10bit][AAC 5.1]

-->

导演乔·舒马赫
编剧加斯顿·勒鲁 / 安德鲁·洛伊德·韦伯 / 乔·舒马赫
主演杰拉德·巴特勒 / 埃米·罗森 / 帕特里克·威尔森 / 米兰达·理查森 / 明妮·德里弗 / 更多...
类型: 剧情 / 爱情 / 惊悚 / 音乐
制片国家/地区: 英国 / 美国
语言: 英语 / 意大利语
上映日期: 2004-12-10(英国) / 2004-12-22(美国)
片长: 143 分钟
又名: 歌声魅影(港) / 安德鲁洛伊韦伯之歌剧魅影(台) / 歌剧院幽灵 / 剧院魅影
IMDb链接: tt0293508

IMDB评分:7.3

豆瓣评分:8.5

歌剧魅影的剧情简介 · · · · · ·

  巴黎歌剧院合唱团的新人克莉斯汀(艾米•罗苏姆 Emmy Rossum 饰)最近进步神速,全因剧院内的一间古老房间内每晚都会传出一把优美的男声向她传授歌唱技巧。这个良师益友其实是一个人称“剧院魅影”(杰拉德•巴特勒 Gerard Butler 饰)的人,此人因样貌丑陋,自小便被父母抛弃,戴着面具隐居在剧院的地下室。“剧院魅影”内心其实深爱着克莉斯汀。 
  一次偶然的机会,克莉斯汀有幸担当一部歌剧的主角。凭借从“剧院魅影”那里学得的丰富的歌唱技巧,克莉斯汀一炮而红,并被年轻英俊的剧院赞助人拉乌尔(帕特里克•威尔逊 Patrick Wilson 饰)看上了。两个年轻人很快堕入了爱河。“剧院魅影”伤透了心,认为是拉乌尔抢走了克莉斯汀,准备上演一出爱情复仇的大戏……

General

Complete name               : C:\Users\Administrator\Desktop\The.Phantom.of.the.Opera.2004.BD1080p.x265.10bit.HEVC.ACC.5.1.英语双字-AWKN.mp4

Format                      : MPEG-4

Format profile              : Base Media

Codec ID                    : iso4 (iso4/hvc1/iso6)

File size                   : 2.99 GiB

Duration                    : 2 h 21 min

Overall bit rate mode       : Variable

Overall bit rate            : 3 027 kb/s

Encoded date                : UTC 2019-12-04 12:03:20

Tagged date                 : UTC 2019-12-04 12:03:20


Video

ID                          : 1

Format                      : HEVC

Format/Info                 : High Efficiency Video Coding

Format profile              : Main [email protected]@Main

Codec ID                    : hvc1

Codec ID/Info               : High Efficiency Video Coding

Duration                    : 2 h 21 min

Bit rate                    : 2 801 kb/s

Maximum bit rate            : 13.8 Mb/s

Width                       : 1 920 pixels

Height                      : 890 pixels

Display aspect ratio        : 2.2:1

Frame rate mode             : Constant

Frame rate                  : 23.976 (24000/1001) FPS

Color space                 : YUV

Chroma subsampling          : 4:2:0

Bit depth                   : 10 bits

Bits/(Pixel*Frame)          : 0.068

Stream size                 : 2.76 GiB (93%)

Writing library             : x265 2.9169e76b6bbcc:[Windows][GCC 8.2.0][64 bit] 10bit

Encoding settings           : cpuid=1049583 / frame-threads=4 / numa-pools=20 / wpp / no-pmode / no-pme / no-psnr / no-ssim / log-level=2 / input-csp=1 / input-res=1920x890 / interlace=0 / total-frames=203305 / level-idc=0 / high-tier=1 / uhd-bd=0 / ref=4 / no-allow-non-conformance / no-repeat-headers / annexb / no-aud / no-hrd / info / hash=0 / no-temporal-layers / open-gop / min-keyint=23 / keyint=250 / gop-lookahead=0 / bframes=4 / b-adapt=2 / b-pyramid / bframe-bias=0 / rc-lookahead=25 / lookahead-slices=4 / scenecut=40 / radl=0 / no-intra-refresh / ctu=64 / min-cu-size=8 / rect / no-amp / max-tu-size=32 / tu-inter-depth=1 / tu-intra-depth=1 / limit-tu=0 / rdoq-level=2 / dynamic-rd=0.00 / no-ssim-rd / signhide / no-tskip / nr-intra=0 / nr-inter=0 / no-constrained-intra / strong-intra-smoothing / max-merge=3 / limit-refs=3 / limit-modes / me=3 / subme=3 / merange=57 / temporal-mvp / weightp / no-weightb / no-analyze-src-pics / deblock=0:0 / sao / no-sao-non-deblock / rd=4 / no-early-skip / rskip / no-fast-intra / no-tskip-fast / no-cu-lossless / no-b-intra / no-splitrd-skip / rdpenalty=0 / psy-rd=2.00 / psy-rdoq=1.00 / no-rd-refine / no-lossless / cbqpoffs=0 / crqpoffs=0 / rc=abr / bitrate=2800 / qcomp=0.60 / qpstep=4 / stats-write=0 / stats-read=2 / cplxblur=20.0 / qblur=0.5 / ipratio=1.40 / pbratio=1.30 / aq-mode=1 / aq-strength=1.00 / cutree / zone-count=0 / no-strict-cbr / qg-size=32 / no-rc-grain / qpmax=69 / qpmin=0 / no-const-vbv / sar=1 / overscan=0 / videoformat=5 / range=0 / colorprim=2 / transfer=2 / colormatrix=2 / chromaloc=0 / display-window=0 / max-cll=0,0 / min-luma=0 / max-luma=1023 / log2-max-poc-lsb=8 / vui-timing-info / vui-hrd-info / slices=1 / no-opt-qp-pps / no-opt-ref-list-length-pps / no-multi-pass-opt-rps / scenecut-bias=0.05 / no-opt-cu-delta-qp / no-aq-motion / no-hdr / no-hdr-opt / no-dhdr10-opt / no-idr-recovery-sei / analysis-reuse-level=5 / scale-factor=0 / refine-intra=0 / refine-inter=0 / refine-mv=0 / no-limit-sao / ctu-info=0 / no-lowpass-dct / refine-mv-type=0 / copy-pic=1 / max-ausize-factor=1.0 / no-dynamic-refine / no-single-sei

Encoded date                : UTC 2019-12-04 12:03:20

Tagged date                 : UTC 2019-12-04 12:04:13

Codec configuration box     : hvcC


Audio

ID                          : 2

Format                      : AAC LC

Format/Info                 : Advanced Audio Codec Low Complexity

Codec ID                    : mp4a-40-2

Duration                    : 2 h 21 min

Bit rate mode               : Variable

Bit rate                    : 223 kb/s

Maximum bit rate            : 360 kb/s

Channel(s)                  : 6 channels

Channel layout              : C L R Ls Rs LFE

Sampling rate               : 48.0 kHz

Frame rate                  : 46.875 FPS (1024 SPF)

Compression mode            : Lossy

Stream size                 : 225 MiB (7%)

Language                    : English

Encoded date                : UTC 2019-12-04 11:42:31

Tagged date                 : UTC 2019-12-04 12:04:13



https://pan.baidu.com/s/1DDYOtWU7l0jpAKy0vwH5Xw 提取码:jhl4



1 个附件 售价 大小 下载 时间

歌剧魅影.The.Phantom.of.the.Opera.2004.BD1080p.x265.10bit.HEVC.ACC.5.1.英语双字-AWKN.torrent 0 金币 15.66K 3598 次 1月前

#1楼
发帖时间:2019-12-04 21:14:34   |   回复数:7
ALLEN820213
隐世仙人♂
感谢楼主分享!!!
1月前 #2楼
cliff168
一派掌门
感谢分享好东西
1月前 #3楼
ak147
一代宗师
感谢大大分享
1月前 #4楼
ysihang
武林盟主
感谢楼主分享!!!
1月前 #5楼
911degrees
隐世仙人♂
非常感谢,谢谢分享
1月前 #6楼
jokingcheung
一代宗师
谢谢分享
1月前 #7楼
继续支持
一代宗师
谢谢楼主无私分享经典影片,继续支持你发片。
1月前 #8楼
游客组