coor
一代宗师

[2019] [其他] [剧情] [BD-1080P] 追龍2:賊王 Chasing.the.Dragon.II.Wild.Wild.Bunch.2019.CHINESE.1080p.BluRay.x264.DD5.

-->

帖子完整标题:追龍2:賊王 Chasing.the.Dragon.II.Wild.Wild.Bunch.2019.CHINESE.1080p.BluRay.x264.DD5.1-PbK 6.21GB




◎译  名 追龙Ⅱ / Chasing the Dragon 2: Wild Wild Bunch / Chasing the Dragon Ⅱ / Chasing the Dragon Ⅱ: Master of Ransom / Master of Ransom / 贼王 / 追龙2 / 追龙2:追缉大富豪 / 追龙II:贼王
◎片  名 追龍2:賊王
◎年  代 2019
◎产  地 中国香港 / 中国大陆
◎类  别 剧情 / 动作 / 犯罪
◎语  言 粤语 / 汉语普通话
◎上映日期 2019-06-06(中国大陆)
◎IMDb评分 5.8/10 from 324 users
◎IMDb链接 https://www.imdb.com/title/tt10279010
◎豆瓣评分 5.5/10 from 115774 users
◎豆瓣链接 https://movie.douban.com/subject/30175306/
◎片  长 103分钟
◎导  演 王晶 Jing Wong / 关智耀 Jason Kwan Chi-Yiu
◎编  剧 王晶 Jing Wong / 吕冠南 Lui Koon Nam
◎主  演 梁家辉 Tony Leung
      古天乐 Louis Koo
      林家栋 Ka Tung Lam
      邱意浓 Sabrina Qiu
      叶相明 Xiangming Ye
      任达华 Simon Yam
      杜江 Jiang Du
      王敏德 Michael Wong
      余安安 On-on Yu
      韦家雄 Ka-Hung Wai
      陈伟雄 Phat Chan
      黄竣锋 Jason Wong
      王宝葆
      秦煌 Wong Chun


◎标  签 香港 | 犯罪 | 警匪 | 动作 | 2019 | 黑帮 | 剧情 | 悬疑

◎简  介

  悍匪龙志强,在香港回归前,趁香港英政府不作为,而屡犯巨案,先后绑架富豪利家及雷家之长子,勒索超过二十亿元,事主怕被报复, 交赎款后都不敢报警。中国公安部极为关注,与香港警方合力,派香港警员何天卧底潜入龙志强犯罪团伙,发现他正策划绑架澳门富豪贺不凡,最终陆港警察合力勇擒龙志强,救出贺不凡。
Video
ID : 1
Format : AVC
Format/Info : Advanced Video Codec
Format profile : [email protected]
Format settings : CABAC / 5 Ref Frames
Format settings, CABAC : Yes
Format settings, Reference frames : 5 frames
Codec ID : V_MPEG4/ISO/AVC
Duration : 1 h 40 min
Bit rate : 8 163 kb/s
Width : 1 920 pixels
Height : 804 pixels
Display aspect ratio : 2.40:1
Frame rate mode : Constant
Frame rate : 24.000 FPS
Color space : YUV
Chroma subsampling : 4:2:0
Bit depth : 8 bits
Scan type : Progressive
Bits/(Pixel*Frame) : 0.220
Stream size : 5.75 GiB (93%)
Writing library : x264 core 160 r3000+53 e3e4c3e t_mod_New [(8 & 10)[email protected] X86_64]
Encoding settings : cabac=1 / ref=5 / deblock=1:-3:-3 / analyse=0x3:0x133 / me=umh / subme=10 / psy=1 / fade_compensate=0.00 / psy_rd=1.00:0.00 / mixed_ref=1 / me_range=32 / chroma_me=1 / trellis=2 / 8x8dct=1 / cqm=0 / deadzone=21,11 / fast_pskip=0 / chroma_qp_offset=-2 / threads=16 / lookahead_threads=4 / sliced_threads=0 / nr=0 / decimate=0 / interlaced=0 / bluray_compat=0 / constrained_intra=0 / fgo=0 / bframes=12 / b_pyramid=2 / b_adapt=2 / b_bias=0 / direct=3 / weightb=1 / open_gop=0 / weightp=2 / keyint=480 / keyint_min=24 / scenecut=40 / intra_refresh=0 / rc_lookahead=80 / rc=crf / mbtree=0 / crf=16.0000 / qcomp=0.60 / qpmin=0:0:0 / qpmax=69:69:69 / qpstep=4 / vbv_maxrate=62500 / vbv_bufsize=78125 / crf_max=0.0 / nal_hrd=none / filler=0 / ip_ratio=1.30 / pb_ratio=1.20 / aq=3:0.80 / aq-sensitivity=10.00 / aq-factor=1.00:1.00:1.00 / aq2=0 / aq3=0
Default : Yes
Forced : No
Color range : Limited
Color primaries : BT.709
Transfer characteristics : BT.709
Matrix coefficients : BT.709

Audio
ID : 2
Format : AC-3
Format/Info : Audio Coding 3
Commercial name : Dolby Digital
Codec ID : A_AC3
Duration : 1 h 40 min
Bit rate mode : Constant
Bit rate : 640 kb/s
Channel(s) : 6 channels
Channel layout : L R C LFE Ls Rs
Sampling rate : 48.0 kHz
Frame rate : 31.250 FPS (1536 SPF)
Bit depth : 16 bits
Compression mode : Lossy
Stream size : 461 MiB (7%)
Title : Cantonese
Language : Chinese
Service kind : Complete Main
Default : Yes
Forced : No

Text #1
ID : 3
Format : UTF-8
Codec ID : S_TEXT/UTF8
Codec ID/Info : UTF-8 Plain Text
Duration : 1 h 34 min
Bit rate : 39 b/s
Count of elements : 1095
Stream size : 27.0 KiB (0%)
Language : English
Default : Yes
Forced : No

Text #2
ID : 4
Format : PGS
Muxing mode : zlib
Codec ID : S_HDMV/PGS
Codec ID/Info : Picture based subtitle format used on BDs/HD-DVDs
Duration : 1 h 35 min
Bit rate : 25.3 kb/s
Count of elements : 2102
Stream size : 17.2 MiB (0%)
Title : Traditional
Language : Chinese
Default : No
Forced : No

Text #3
ID : 5
Format : PGS
Muxing mode : zlib
Codec ID : S_HDMV/PGS
Codec ID/Info : Picture based subtitle format used on BDs/HD-DVDs
Duration : 1 h 35 min
Bit rate : 35.4 kb/s
Count of elements : 2102
Stream size : 24.1 MiB (0%)
Language : English
Default : No
Forced : No

Menu
00:00:00.000 : en:Chapter 1
00:09:17.375 : en:Chapter 2
00:16:56.667 : en:Chapter 3
00:25:04.292 : en:Chapter 4
00:32:34.792 : en:Chapter 5
00:44:08.667 : en:Chapter 6
00:50:56.375 : en:Chapter 7
00:59:33.667 : en:Chapter 8
01:07:44.500 : en:Chapter 9
01:17:06.292 : en:Chapter 10
01:25:51.750 : en:Chapter 11
01:36:32.833 : en:Chapter 12





1 个附件 售价 大小 下载 时间

Chasing.the.Dragon.II.Wild.Wild.Bunch.2019.CHINESE.1080p.BluRay.x264.DD5.1-PbK.torrent 0 金币 31.65K 5019 次 4月前

#1楼
发帖时间:2020-05-22 15:20:04   |   回复数:7
911degrees
隐世仙人♂
非常感谢,谢谢分享
4月前 #2楼
kola13
武林盟主
感谢分享
4月前 #3楼
show55667878
武林高手
感謝分享藍光版本
4月前 #4楼
jokingcheung
一代宗师
谢谢分享
4月前 #5楼
jayfengli
小有名气
感谢分享啦。
4月前 #6楼
liyouchai
隐世仙人♂
谢谢楼主分享资源
4月前 #7楼
chulps
一代宗师
~ 珍惜+支持 ~
2月前 #8楼
游客组