coor
一代宗师

[更 早] [其他] [剧情] [BD-720P] 直到世界尽头 Until.the.End.of.the.World.1991.720p.BluRay.x264-DEPTH 16.16GB

-->

帖子完整标题:直到世界尽头 Until.the.End.of.the.World.1991.720p.BluRay.x264-DEPTH 16.16GB




◎译  名 直到世界尽头 / Until the End of the World
◎片  名 Bis ans Ende der Welt
◎年  代 1991
◎产  地 德国 / 法国 / 澳大利亚
◎类  别 剧情 / 科幻
◎语  言 英语 / 法语 / 意大利语 / 日语 / 德语
◎上映日期 1991-09-12
◎IMDb评分 6.8/10 from 8616 users
◎IMDb链接 https://www.imdb.com/title/tt0101458
◎豆瓣评分 8.2/10 from 1481 users
◎豆瓣链接 https://movie.douban.com/subject/1295897/
◎片  长 280 分钟(director's cut)
◎导  演 维姆·文德斯 Wim Wenders
◎编  剧 维姆·文德斯 Wim Wenders / Peter Carey / 索尔维格·多马尔坦 Solveig Dommartin / 米歇尔·阿米瑞亚德 Michael Almereyda
◎主  演 索尔维格·多马尔坦 Solveig Dommartin
      奇克·奥尔特加 Chick Ortega
      埃迪·米切尔 Eddy Mitchell
      威廉·赫特 William Hurt
      阿德尔·卢茨 Adelle Lutz
      厄尼·丁戈 Ernie Dingo
      让娜·莫罗 Jeanne Moreau
      山姆·尼尔 Sam Neill
      吕迪格·福格勒 Rüdiger Vogler
      Diogo Dória
      Amália Rodrigues
      马克斯·冯·叙多夫 Max von Sydow
      多洛莉丝·卓别林 Dolores Chaplin
      张进战 Jinzhan Zhang
      笠智众 Chish? Ry?


◎标  签 德国 | 科幻 | 维姆·文德斯 | WimWenders | 德国电影 | 文德斯 | 1991 | Wim_Wenders

◎简  介

  1999年世纪末,一颗印度的核子卫星即将坠地,地球上一片恐慌,视之为世界末日的到临。住在巴黎的女子克蕾儿(Solveig Dommartin饰)在一次离开男友尤金(Sam Neill饰)的浪游中,认识疑为工业间谍的崔佛(William Hurt饰),并且深深为之着迷。一 次车祸意外中,克蕾儿认识二名抢匪,受托运送大批赃款,克蕾儿开始出发去寻找迷一样的人物崔佛。他们的足迹遍布四大洲:从尼斯、巴黎、柏林、里斯本、莫斯科、北京、东京、追逐到旧金山、雪梨,最后到达澳洲中部荒芜的库柏培地原住民生活区。过程中,克蕾儿终于知道崔佛的本名是山姆法柏。他不是工业间谍,而是一位科学家的儿子。许多私家侦探追逐他的原因是老法柏(Max von Sydow饰)制造了一个可以让盲人看见的摄影机。为的是要让山姆目盲的母亲(Jeanne Moreau饰)可以看见她的亲人。就在一群人汇集澳洲峡谷的时候,核子卫星被美国打下,核磁波干扰了所的电器设备,一切都恢复原始的状态。外头的世界不知是生是死?这群人在地下实验室里开始了一连串超越人类科技的实验,数字摄影转换成脑波、再转换成影像的实验成功,终于让山姆的母亲看见家人,不久终因体力不胜负荷而去世。临死前,他母亲说:「看不见反而更好,这世界竟变得如此丑陋。」温德斯的微言大义,在此作了深刻的呈现。之后,包括老法柏、山姆和克蕾儿都陷入对梦境的痴迷中。他们把梦境转成视觉,让人可以读梦(老法柏一直想因此获得诺贝尔奖),山姆和父亲的冲突矛盾、克蕾儿对童年之梦的偏执,像一层层的牢笼,将他们紧紧网住。使每一个人都陷入偏执的迷失当中。只有陈述此事件的尤金是清醒的。他知道世界并没有毁灭(只是时受核磁脉冲影响),只是这群人陷在不可自拔的梦境追寻中。于是一切如尤里西斯的漫游遂都有了反映与解答。
Video
ID : 1
Format : AVC
Format/Info : Advanced Video Codec
Format profile : [email protected]
Format settings : CABAC / 9 Ref Frames
Format settings, CABAC : Yes
Format settings, Reference frames : 9 frames
Codec ID : V_MPEG4/ISO/AVC
Duration : 4 h 47 min
Bit rate : 7 383 kb/s
Width : 1 194 pixels
Height : 720 pixels
Display aspect ratio : 5:3
Frame rate mode : Constant
Frame rate : 23.976 (24000/1001/189150) FPS
Color space : YUV
Chroma subsampling : 4:2:0
Bit depth : 8 bits
Scan type : Progressive
Bits/(Pixel*Frame) : 0.358
Stream size : 14.9 GiB (92%)
Writing library : x264 core 160 r3000 33f9e14
Encoding settings : cabac=1 / ref=9 / deblock=1:-3:-3 / analyse=0x3:0x133 / me=umh / subme=10 / psy=1 / psy_rd=1.00:0.15 / mixed_ref=1 / me_range=32 / chroma_me=1 / trellis=2 / 8x8dct=1 / cqm=0 / deadzone=21,11 / fast_pskip=0 / chroma_qp_offset=-3 / threads=22 / lookahead_threads=3 / sliced_threads=0 / nr=0 / decimate=1 / interlaced=0 / bluray_compat=0 / constrained_intra=0 / bframes=8 / b_pyramid=2 / b_adapt=2 / b_bias=0 / direct=3 / weightb=1 / open_gop=0 / weightp=2 / keyint=250 / keyint_min=23 / scenecut=40 / intra_refresh=0 / rc=crf / mbtree=0 / crf=17.5 / qcomp=0.60 / qpmin=0 / qpmax=69 / qpstep=4 / ip_ratio=1.40 / pb_ratio=1.30 / aq=3:0.80
Default : Yes
Forced : No

Audio
ID : 2
Format : AC-3
Format/Info : Audio Coding 3
Commercial name : Dolby Digital
Codec ID : A_AC3
Duration : 4 h 47 min
Bit rate mode : Constant
Bit rate : 640 kb/s
Channel(s) : 6 channels
Channel layout : L R C LFE Ls Rs
Sampling rate : 48.0 kHz
Frame rate : 31.250 FPS (1536 SPF)
Bit depth : 16 bits
Compression mode : Lossy
Stream size : 1.29 GiB (8%)
Language : English
Service kind : Complete Main
Default : Yes
Forced : No

Text #1
ID : 3
Format : UTF-8
Codec ID : S_TEXT/UTF8
Codec ID/Info : UTF-8 Plain Text
Duration : 4 h 39 min
Bit rate : 3 b/s
Count of elements : 223
Stream size : 6.72 KiB (0%)
Title : Forced
Language : English
Default : Yes
Forced : Yes

Text #2
ID : 4
Format : PGS
Muxing mode : zlib
Codec ID : S_HDMV/PGS
Codec ID/Info : Picture based subtitle format used on BDs/HD-DVDs
Duration : 4 h 39 min
Bit rate : 2 693 b/s
Count of elements : 446
Stream size : 5.39 MiB (0%)
Title : Forced
Language : English
Default : No
Forced : No

Text #3
ID : 5
Format : UTF-8
Codec ID : S_TEXT/UTF8
Codec ID/Info : UTF-8 Plain Text
Duration : 4 h 43 min
Bit rate : 50 b/s
Count of elements : 2994
Stream size : 104 KiB (0%)
Title : Full
Language : English
Default : No
Forced : No

Text #4
ID : 6
Format : UTF-8
Codec ID : S_TEXT/UTF8
Codec ID/Info : UTF-8 Plain Text
Duration : 4 h 43 min
Bit rate : 54 b/s
Count of elements : 3287
Stream size : 113 KiB (0%)
Title : SDH
Language : English
Default : No
Forced : No

Text #5
ID : 7
Format : PGS
Muxing mode : zlib
Codec ID : S_HDMV/PGS
Codec ID/Info : Picture based subtitle format used on BDs/HD-DVDs
Duration : 4 h 43 min
Bit rate : 43.5 kb/s
Count of elements : 6574
Stream size : 88.1 MiB (1%)
Title : SDH
Language : English
Default : No
Forced : No

Menu
00:00:00.000 : en:Chapter 01
00:08:46.151 : en:Chapter 02
00:21:12.104 : en:Chapter 03
00:35:37.677 : en:Chapter 04
00:43:43.371 : en:Chapter 05
00:52:13.380 : en:Chapter 06
01:00:23.286 : en:Chapter 07
01:08:59.510 : en:Chapter 08
01:17:34.441 : en:Chapter 09
01:27:51.308 : en:Chapter 10
01:41:03.808 : en:Chapter 11
01:55:33.844 : en:Chapter 12
02:05:55.256 : en:Chapter 13
02:11:27.968 : en:Chapter 14
02:25:47.201 : en:Chapter 15
02:38:35.052 : en:Chapter 16
02:47:53.526 : en:Chapter 17
02:55:26.729 : en:Chapter 18
03:08:22.754 : en:Chapter 19
03:16:25.153 : en:Chapter 20
03:30:49.391 : en:Chapter 21
03:38:40.487 : en:Chapter 22
03:48:39.544 : en:Chapter 23
03:57:28.697 : en:Chapter 24
04:09:07.229 : en:Chapter 25
04:19:10.039 : en:Chapter 26
04:27:14.565 : en:Chapter 27
04:34:04.683 : en:Chapter 28
04:38:19.854 : en:Chapter 29





1 个附件 售价 大小 下载 时间

Until.the.End.of.the.World.1991.720p.BluRay.x264-DEPTH.torrent 0 金币 81.46K 504 次 4月前

#1楼
发帖时间:2020-05-22 15:18:04   |   回复数:2
911degrees
隐世仙人♂
非常感谢,谢谢分享
4月前 #2楼
jokingcheung
一代宗师
谢谢分享
4月前 #3楼
游客组