HELLO小虾
版主

[2018] [韩国] [恐怖] [BD-720P] [BT下载]昆池岩[中字]Gonjiam.Haunted.Asylum.2018.720p.BluRay.x264-WiKi 4.37GB

-->

内含中字

Gonjiam.Haunted.Asylum.2018.KOREAN.720p.BluRay.x264-WiKi

◎译  名 昆池岩/鬼病院:灵异直播(台)/疯人院逐个捉(港)/魂断疯人院

◎片  名 곤지암

◎年  代 2018

◎产  地 韩国

◎类  别 恐怖

◎语  言 韩语

◎上映日期 2018-03-28(韩国)

◎豆瓣评分 6.1/10 from 73,284 users

◎豆瓣链接 https://movie.douban.com/subject/26945085/

◎BT之家整理 http://www.btbtt.us/

◎片  长 94分钟

◎导  演 郑凡植 Baum-sik Jeong

◎主  演 魏河俊 Wi Ha-joon

      朴智贤 Ji-hyun Park

      吴雅妍 Ah-yeon Oh

      文艺媛 Moon Ye-won

      朴成勋 Park Sung-hoon

      刘帝允 Je-yoon Yoo

      李丞旭 Lee Seung-wook


◎简  介


  原名南营神经精神医院的昆池岩精神病院,最早建立于20世纪60年代。在特殊的时代它曾经历了无比的辉煌,然而更为人熟知的则是该医院身上所发生的各类恐怖事件。现如今,早已废弃的昆池岩医院被CNN票选为全球七大恐怖之地之一,更由此吸引无数寻求刺激的青年男女来此探险。三个月前,两名青少年来此探险,结果在直播中遭遇诡异事件,下落不明。此后,《恐怖世代》剧组在魏河俊的召集下,网罗了吴雅妍、朴智贤、夏洛特(文艺媛 饰)、李丞旭、朴成勋、刘帝允等人前往昆池岩,更试图打开备受诅咒的402室。

  夜幕降临,全球网友一道观看这场恐怖盛宴……


Video
ID : 1
Format : AVC
Format/Info : Advanced Video Codec
Format profile : High@L4.1
Format settings : CABAC / 9 Ref Frames
Format settings, CABAC : Yes
Format settings, ReFrames : 9 frames
Codec ID : V_MPEG4/ISO/AVC
Duration : 1 h 34 min
Bit rate : 5 996 kb/s
Width : 1 280 pixels
Height : 690 pixels
Display aspect ratio : 1.85:1
Frame rate mode : Constant
Frame rate : 24.000 FPS
Color space : YUV
Chroma subsampling : 4:2:0
Bit depth : 8 bits
Scan type : Progressive
Bits/(Pixel*Frame) : 0.283
Stream size : 3.95 GiB (90%)
Writing library : x264 core 129 r2245 bc13772
Encoding settings : cabac=1 / ref=9 / deblock=1:-3:-3 / analyse=0x3:0x133 / me=umh / subme=11 / psy=1 / psy_rd=1.05:0.10 / mixed_ref=1 / me_range=32 / chroma_me=1 / trellis=2 / 8x8dct=1 / cqm=0 / deadzone=21,11 / fast_pskip=0 / chroma_qp_offset=-3 / threads=6 / lookahead_threads=1 / sliced_threads=0 / nr=0 / decimate=1 / interlaced=0 / bluray_compat=0 / constrained_intra=0 / bframes=8 / b_pyramid=2 / b_adapt=2 / b_bias=0 / direct=3 / weightb=1 / open_gop=0 / weightp=2 / keyint=250 / keyint_min=24 / scenecut=40 / intra_refresh=0 / rc_lookahead=60 / rc=2pass / mbtree=1 / bitrate=5996 / ratetol=1.0 / qcomp=0.60 / qpmin=0 / qpmax=69 / qpstep=4 / cplxblur=20.0 / qblur=0.5 / ip_ratio=1.40 / aq=1:0.65
Language : English
Default : Yes
Forced : No

Audio
ID : 2
Format : AC-3
Format/Info : Audio Coding 3
Codec ID : A_AC3
Duration : 1 h 34 min
Bit rate mode : Constant
Bit rate : 640 kb/s
Channel(s) : 6 channels
Channel positions : Front: L C R, Side: L R, LFE
Sampling rate : 48.0 kHz
Frame rate : 31.250 FPS (1536 SPF)
Bit depth : 16 bits
Compression mode : Lossy
Stream size : 432 MiB (10%)
Language : Korean
Service kind : Complete Main
Default : Yes
Forced : No

Text #1
ID : 3
Format : UTF-8
Codec ID : S_TEXT/UTF8
Codec ID/Info : UTF-8 Plain Text
Duration : 1 h 33 min
Bit rate : 46 b/s
Count of elements : 1264
Stream size : 31.7 KiB (0%)
Title : 简体
Language : Chinese
Default : Yes
Forced : No

Text #2
ID : 4
Format : UTF-8
Codec ID : S_TEXT/UTF8
Codec ID/Info : UTF-8 Plain Text
Duration : 1 h 33 min
Bit rate : 46 b/s
Count of elements : 1264
Stream size : 31.7 KiB (0%)
Title : 繁体
Language : Chinese
Default : No
Forced : No



1 个附件 售价 大小 下载 时间

Gonjiam.Haunted.Asylum.2018.KOREAN.720p.BluRay.x264-WiKi[btbtt.me].torrent 0 金币 87.98K 2590 次 1月前

#1楼
发帖时间:2018-08-21 21:08:29   |   回复数:4
liyouchai
超凡入圣№
谢谢楼主分享资源
1月前 #2楼
911degrees
隐世仙人♂
非常感谢,谢谢分享
1月前 #3楼
blue23
隐世仙人♂
感谢楼主分享
1月前 #4楼
wangzhuol
武林高手
谢谢版主分享
22天前 #5楼
游客组